<?xml version="1.0" standalone="no"?>
<!DOCTYPE svg PUBLIC "-//W3C//DTD SVG 1.1//EN" "http://www.w3.org/Graphics/SVG/1.1/DTD/svg11.dtd" >
<svg xmlns="http://www.w3.org/2000/svg" xmlns:xlink="http://www.w3.org/1999/xlink" version="1.1">
<metadata>
Created by FontForge 20170731 at Sat Mar 10 15:36:15 2007
 By Aleksey,,,
KhmerOS - font for the Khmer language of Cambodia
Copyright 2007 Danh Hong
 
This font is free software; you can redistribute it and/or modify it under the terms of the GNU Lesser General Public License as published by the Free Software Foundation; either version 2.1 of the License, or (at your option) any later version.

This library is distributed in the hope that it will be useful, but WITHOUT ANY WARRANTY; without even the implied warranty of MERCHANTABILITY or FITNESS FOR A PARTICULAR PURPOSE.? See the GNU Lesser General Public License for more details.

You should have received a copy of the GNU Lesser General Public License along with this font; if not, write to the Free Software Foundation, Inc., 51 Franklin Street, Fifth Floor, Boston, MA 02110-1301  USA or visit http://www.gnu.org/licenses/lgpl.html
</metadata>
<defs>
<font id="KhmerOSMuolLight" horiz-adv-x="0" >
  <font-face 
    font-family="Khmer OS Muol Light"
    font-weight="400"
    font-style="italic"
    font-stretch="normal"
    units-per-em="2048"
    panose-1="2 0 5 0 0 0 0 2 0 4"
    ascent="1638"
    descent="-410"
    bbox="-2301 -1200 5280 2501"
    underline-thickness="48"
    underline-position="-372"
    slope="9"
    unicode-range="U+0020-25CC"
  />
<missing-glyph 
 />
    <glyph glyph-name=".notdef" 
 />
    <glyph glyph-name=".null" 
 />
    <glyph glyph-name="nonmarkingreturn" horiz-adv-x="682" 
 />
    <glyph glyph-name="space" unicode=" " horiz-adv-x="600" 
 />
    <glyph glyph-name="uni1780" unicode="&#x1780;" horiz-adv-x="1800" 
d="M1518.5 406q31.5 0 31.5 44v117q-59 -55 -81.5 -74t-2 -53t52 -34zM434 1000h16q75 0 147 -29q70 -28 110 -80q237 209 389 209q186 0 554 -120v-840q-120 -140 -200 -140q-161 0 -280 154q-120 153 -120 296q208 20 467 183q-311 117 -461 117q-162 0 -306 -73v-477
q0 -200 -300 -200t-300 300v150q94 -50 209 -50q114 0 203 58q74 48 86 146q-22 -14 -48 -24q-72 -30 -150 -30q-300 0 -300 225q0 198 233 222q-135 72 -233 57v206q315 240 404 240q88 0 226 -90q137 -90 184 -90t155 90t172 90q63 0 202 -75t257 -75q-108 -250 -235 -250
q-107 0 -245 60q-139 60 -179 60q-41 0 -138 -83q-98 -83 -161 -83q-64 0 -200 89t-175 89q-40 0 -110 -38q104 -8 200 -92z" />
    <glyph glyph-name="uni1781" unicode="&#x1781;" horiz-adv-x="1800" 
d="M150 1040q0 460 750 460t750 -491q0 -244 -262.5 -380.5t-787.5 -164.5q60 -164 424 -164t626 358q0 -658 -750 -658t-750 601q436 2 768 79t332 269q0 251 -450 251t-450 -180q0 -77 36 -121v9q0 49 36.5 94t101.5 69.5t134 24.5q68 0 133 -24.5t102 -69.5t37 -94
t-36 -93.5t-100.5 -69.5t-135.5 -25q-508 0 -508 320z" />
    <glyph glyph-name="uni1782" unicode="&#x1782;" horiz-adv-x="1800" 
d="M1518.5 406q31.5 0 31.5 44v117q-59 -55 -81.5 -74t-2 -53t52 -34zM845 1060q277 0 805 -80v-840q-120 -140 -200 -140q-161 0 -280 154q-120 153 -120 296q208 20 467 183q-471 77 -721 77q-251 0 -398.5 -80t-147.5 -160q0 -130 149 -148q53 145 151.5 211.5
t198.5 66.5q120 0 191.5 -77t35 -175t-102 -98t-105.5 43.5t-100.5 43t-78.5 -57.5q-18 -78 64 -142q-64 -137 -215 -137q-148 0 -218 83t-70 216v431q85 167 251.5 248.5t443.5 81.5zM368 981q-107 50 -218 33v246q315 240 404 240q88 0 226 -90q137 -90 184 -90t155 90
t172 90q63 0 202 -75t257 -75q-108 -270 -235 -270q-107 0 -245.5 70t-178.5 70q-41 0 -138.5 -78t-160.5 -78q-64 0 -200 84t-175 84q-40 0 -110 -38q104 -8 245 -147z" />
    <glyph glyph-name="uni1783" unicode="&#x1783;" horiz-adv-x="2600" 
d="M1582 345q107 -25 268 -25q205 0 327.5 60t122.5 200q0 55 -122.5 102.5t-397.5 -32.5v574q0 76 129 176t165 100t159.5 -68t214.5 -68q-79 -273 -163.5 -273.5t-155.5 34.5t-144.5 15t-103.5 -140q255 80 412 -35t157 -364q0 -235 -200 -418t-520 -183q-245 0 -431 80
q-164 -80 -389 -80q-370 0 -555 137.5t-205 412.5q240 0 356 81t145 177t29 130q0 106 -67.5 199t-162.5 93q-149 0 -149 -75t80 -75q69 0 119 50q82 -51 106 -160.5t-42 -189.5t-161 -80t-174 87.5t-79 282.5q0 200 100 315t231 115q185 0 272 -108t87 -324
q0 -107 -49.5 -282t-180.5 -346q19 -50 134 -85t306 -35q205 0 327.5 60t122.5 200q0 55 -122.5 102.5t-397.5 -32.5v574q0 76 129 176t165 100t159.5 -68t214.5 -68q-79 -273 -163.5 -273.5t-155.5 34.5t-144.5 15t-103.5 -140q255 80 412 -35t157 -364q0 -137 -68 -256z
" />
    <glyph glyph-name="uni1784" unicode="&#x1784;" horiz-adv-x="1800" 
d="M302 1021q199 39 353.5 -28t154.5 -275q0 -148 -200 -278q19 -50 134 -85t306 -35q205 0 349 98.5t251 272.5q0 -325 -200 -508t-540 -183q-370 0 -555 137.5t-205 362.5q240 0 370 43q130 42 130 109.5t-169 57.5t-331 -60v466q90 144 284.5 264t514.5 120
q291 0 496 -155t205 -337q0 -142 -99 -255t-287 -113q-304 0 -304 205t191 205q130 1 180 -69q-9 -77 80.5 -79t89.5 53q0 97 -162 166t-386 69q-291 0 -424.5 -53.5t-226.5 -115.5z" />
    <glyph glyph-name="uni1785" unicode="&#x1785;" horiz-adv-x="1800" 
d="M256 1032q257 61 400 -19q154 -87 154 -295q0 -148 -200 -278q19 -50 134 -85t306 -35q205 0 327.5 88.5t122.5 241.5q0 48 -9 87q-8 -20 -22 -40q-33 -49 -93.5 -75.5t-125.5 -26.5t-125.5 26.5t-93.5 75t-33 100.5q0 53 34 102t94 75t124 26q400 0 400 -350
q0 -284 -200 -467t-540 -183q-370 0 -555 137.5t-205 362.5q240 0 370 52.5t130 120t-169 57.5t-331 -80v610q303 240 389 240t219 -90t179 -90t151 90q104 90 166 90t197 -75q134 -75 249 -75q-105 -270 -228 -270q-104 0 -238.5 60t-173.5 60t-134 -68t-156 -68
q-62 0 -160 59t-136 59q-58 0 -125 -46q-49 -34 -93 -104z" />
    <glyph glyph-name="uni1786" unicode="&#x1786;" horiz-adv-x="1800" 
d="M650 400v50q-59 0 -81.5 -13t-2 -47t52 -34t31.5 44zM750 450v-310q-120 -140 -200 -140q-161 0 -280 154q-120 153 -120 296q148 150 335 150h137q2 59 -152 93t-320 -43v610q303 240 389 240t219 -90t179 -90t151 90q104 90 166 90t197 -75q134 -75 249 -75
q-105 -270 -228 -270q-104 0 -238.5 60t-173.5 60t-134 -68t-156 -68q-62 0 -160 59t-136 59q-58 0 -125 -46q-49 -34 -93 -104q169 23 307 -29t187 -153v-250q90 0 160 -52q69 -53 110 -140q40 -88 178 -88q167 0 234.5 90t67.5 240q0 48 -9 87q-8 -20 -22 -40
q-33 -49 -93.5 -75.5t-125.5 -26.5t-125.5 26.5t-93.5 75t-33 100.5q0 53 34 102t94 75t124 26q400 0 400 -350q0 -324 -130 -487t-305 -163q-315 0 -351 322q-34 128 -114 128z" />
    <glyph glyph-name="uni1787" unicode="&#x1787;" horiz-adv-x="1800" 
d="M262 1021q239 59 393.5 -18t154.5 -285q0 -148 -200 -278q19 -50 134 -85t306 -35q205 0 349 98.5t251 342.5q0 -395 -200 -578t-540 -183q-370 0 -555 137.5t-205 362.5q240 0 370 42.5t130 110t-169 72.5t-331 -75v520q74 134 235 232t314 98q152 -1 360 -151t280 -150
q62 0 62 81q0 80 -155 147q-156 67 -105.5 169.5t175.5 102.5q124 0 229 -80t105 -225t-158.5 -285t-315.5 -140q-165 0 -330.5 95t-300.5 95q-175 0 -283 -138z" />
    <glyph glyph-name="uni1788" unicode="&#x1788;" horiz-adv-x="3130" 
d="M425 1137q-84 -54 -157 -116q155 39 268.5 -28t113.5 -275q0 -118 -134 -222q-171 -134 -130 -166.5t79 34t92 66.5q143 0 143 -160q0 -270 -275 -270t-275 280q0 90 52 177q52 86 248 159q-16 112 -126.5 112t-173.5 -58v446q70 144 201.5 264t370.5 120t402 -109
t216 -216l53 -108l-272 -464q53 -144 160.5 -213.5t298.5 -69.5q205 0 327.5 60t122.5 200q0 55 -122.5 102.5t-397.5 -32.5v574q0 76 129 176t165 100t159.5 -68t214.5 -68q-79 -273 -163.5 -273.5t-155.5 34.5t-144.5 15t-103.5 -140q255 80 412 -35t157 -364
q0 -137 -68 -256q107 -25 268 -25q205 0 327.5 60t122.5 200q0 55 -122.5 102.5t-397.5 -32.5v574q0 76 129 176t165 100t159.5 -68t214.5 -68q-79 -273 -163.5 -273.5t-155.5 34.5t-144.5 15t-103.5 -140q255 80 412 -35t157 -364q0 -235 -200 -418t-520 -183
q-245 0 -431 80q-164 -80 -389 -80q-230 0 -405 103.5t-258 309.5l321 464q-81 146 -195 230q-114 83 -254 83q-141 0 -224 -53z" />
    <glyph glyph-name="uni1789" unicode="&#x1789;" horiz-adv-x="2650" 
d="M2350 -300q0 -350 -442 -350q-84 0 -166 5.5t-165 16.5q-166 21 -537 178q-163 50 -347 50q-322 0 -442 -150q0 300 552 300q387 0 665 -150q279 -150 440 -150q276 0 276 250q0 150 -110 150q-55 0 -55 -50t55 -50q0 -150 -111 -150q-165 0 -165 150q0 200 276 200
t276 -250zM1550 450v117q-59 -55 -81.5 -74t-2 -53t52 -34t31.5 44zM2400 450v117q-59 -55 -81.5 -74t-2 -53t52 -34t31.5 44zM1650 1035v-835q0 -60 -60 -130t-140 -70q-161 0 -280 154q-120 153 -120 266q0 71 250 140t250 233q0 111 -157 229q-158 118 -271 118
q-114 0 -232 -113q-182 113 -331 113q-109 -1 -194 -110q-85 -110 -85 -280q0 -174 60 -281t210 -92t150 84q0 40 -27 63.5t-53.5 -7t-102.5 -30.5q-142 0 -142 178q0 238 202 238q223 0 223 -345q0 -558 -269 -558q-381 0 -381 750q0 360 135 555q134 195 303 195
q109 0 204.5 -57t177.5 -138q130 195 235 195q145 0 295 -113q136 -103 149 -198q36 81 95 154q126 157 231 157q165 0 345 -123t180 -227v-950q0 -60 -60 -130t-140 -70q-161 0 -280 154q-120 153 -120 266q0 71 250 140t250 233q0 111 -182 229q-183 118 -326 118
q-97 0 -242 -105z" />
    <glyph glyph-name="uni178a" unicode="&#x178a;" horiz-adv-x="1800" 
d="M262 1021q239 59 393.5 -18t154.5 -285q0 -148 -200 -278q19 -50 74 -75t138 -25t241 178q110 -158 186 -158t185 78.5t216 322.5q0 -395 -120 -578t-270 -183t-344 167q-181 -167 -323 -167q-143 0 -283 137.5t-160 362.5q240 0 370 42.5t130 110.5q0 67 -169 72
t-331 -75v520q74 134 235 232t314 98q152 -1 360 -151t280 -150q62 0 62 81q0 80 -155 147q-156 67 -105.5 169.5t175.5 102.5q124 0 229 -80t105 -225t-158.5 -285t-315.5 -140q-165 0 -330.5 95t-300.5 95q-175 0 -283 -138z" />
    <glyph glyph-name="uni178b" unicode="&#x178b;" horiz-adv-x="1800" 
d="M910 0q-370 0 -555 137.5t-205 412.5q240 0 356 81t145 177t29 130q0 106 -67.5 199t-162.5 93q-149 0 -149 -75t80 -75q69 0 119 50q82 -51 106 -160.5t-42 -189.5t-161 -80t-174 87.5t-79 282.5q0 200 100 315t231 115q185 0 272 -108t87 -324q0 -107 -49.5 -282
t-180.5 -346q19 -50 134 -85t306 -35q205 0 327.5 60t122.5 200q0 55 -122.5 102.5t-397.5 -32.5v574q0 76 129 176t165 100t97.5 -41t95 -26.5t33.5 56.5q0 140 -213 94q-143 57 -119.5 181.5t148.5 124.5q124 0 229 -80t105 -325q0 -174 -40.5 -283.5t-125 -110
t-155.5 34.5t-144.5 15t-103.5 -140q255 80 412 -35t157 -364q0 -235 -200 -418t-540 -183z" />
    <glyph glyph-name="uni178c" unicode="&#x178c;" horiz-adv-x="1800" 
d="M1297 1056q-51 124 -193 124q-111 0 -221 -167q-213 167 -389 167q-155 0 -155 -190v-45q0 -45 60 -45q39 160 185 160q206 0 206 -171q0 -189 -339 -189q-143 0 -222 98t-79 253q0 189 189 319t280 130t162 -34t199 -123q127 157 261 157q133 0 271 -104.5t138 -242.5
q0 -143 -88 -244q-87 -101 -350 -240q-262 -139 -572 -239q19 -50 79 -85t171 -35q212 0 316 82.5t104 227.5q340 130 340 10v-430q-1 -225 -220 -225q-73 0 -170 25q50 0 50 294q-160 -294 -510 -294q-250 0 -450 152q-200 153 -200 276v122q450 30 798.5 211.5
t348.5 294.5z" />
    <glyph glyph-name="uni178d" unicode="&#x178d;" horiz-adv-x="2700" 
d="M1550 400v50q-59 0 -81.5 -13t-2 -47t52 -34t31.5 44zM800 558q0 -558 -269 -558q-381 0 -381 750q0 360 135 555q134 195 303 195q109 0 204.5 -57t177.5 -138q130 175 235 185q145 10 295 -103t150 -217v-570q90 0 160 -52q69 -53 110 -140q40 -88 178 -88
q157 0 230 75q72 75 72 173q0 67 -122 115q-123 47 -398 -33v574q0 76 129 176t165 100t159.5 -68t214.5 -68q-79 -273 -163.5 -273.5t-155.5 34.5t-144.5 15t-103.5 -140q255 80 412 -35t157 -377t-130 -425t-305 -163q-315 0 -351 322q-34 128 -114 128v-310
q-120 -140 -200 -140q-161 0 -280 154q-120 153 -120 296q148 150 335 150h165v193q0 111 -157.5 229t-270.5 118q-114 0 -232 -113q-182 113 -331 113q-109 -1 -194 -110q-85 -110 -85 -280q0 -174 60 -281t210 -92t150 84q0 40 -27 63.5t-53.5 -7t-102.5 -30.5
q-142 0 -142 178q0 238 202 238q223 0 223 -345z" />
    <glyph glyph-name="uni178e" unicode="&#x178e;" horiz-adv-x="3180" 
d="M2898.5 406q31.5 0 31.5 44v117q-59 -55 -81.5 -74t-2 -53t52 -34zM425 1137q-84 -54 -157 -116q155 39 268.5 -28t113.5 -275q0 -118 -134 -222q-171 -134 -130 -166.5t79 34t92 66.5q143 0 143 -160q0 -270 -275 -270t-275 280q0 90 52 177q52 86 248 159
q-16 112 -126.5 112t-173.5 -58v446q70 144 216.5 264t405.5 120q209 0 428 -120t296 -359q-1 -86 -184 -202q-184 -116 -184 -242q65 -152 148 -194.5t176 -42.5t211 178q110 -158 206 -158t183.5 58.5t87.5 161.5q0 55 -102.5 102.5t-377.5 -32.5v524q0 76 198 201
t418 125q270 0 512 -113t242 -217v-970q0 -60 -60 -130t-140 -70q-161 0 -280 154q-120 153 -120 266q0 71 250 140t250 233q0 111 -279 254q-280 143 -450 143q-141 0 -264 -45q-124 -45 -176 -145q255 80 392 -35t137 -364q0 -305 -150 -453t-300 -148t-304 167
q-191 -167 -313 -167q-143 0 -278 137.5t-155 362.5q0 194 358 417q-81 146 -210 209.5t-269 63.5q-161 0 -244 -53z" />
    <glyph glyph-name="uni178f" unicode="&#x178f;" horiz-adv-x="1800" 
d="M1518.5 406q31.5 0 31.5 44v117q-59 -55 -81.5 -74t-2 -53t52 -34zM845 1060q277 0 805 -80v-840q-120 -140 -200 -140q-161 0 -280 154q-120 153 -120 296q208 20 467 183q-471 77 -721 77q-251 0 -373.5 -65t-122.5 -225t238 -160q43 0 56 52q-194 -5 -194 149
q0 153 216 173q216 19 283 -151t-31 -326q-99 -157 -278 -157q-440 0 -440 495q0 315 209 440t486 125zM368 981q-107 50 -218 33v246q315 240 404 240q88 0 226 -90q137 -90 184 -90t155 90t172 90q63 0 202 -75t257 -75q-108 -270 -235 -270q-107 0 -245.5 70t-178.5 70
q-41 0 -138.5 -78t-160.5 -78q-64 0 -200 84t-175 84q-40 0 -110 -38q104 -8 245 -147z" />
    <glyph glyph-name="uni1790" unicode="&#x1790;" horiz-adv-x="1800" 
d="M150 1170q74 134 235 232t314 98q152 -1 360 -121t280 -120q62 0 62 81q0 80 -155 147q-156 67 -105.5 169.5t175.5 102.5q124 0 229 -80t105 -225t-158.5 -285t-315.5 -140q-165 0 -330.5 65t-300.5 65q-165 0 -271 -123q244 54 382 -23q154 -87 154 -295
q0 -148 -200 -278q19 -50 134 -85t306 -35q205 0 327.5 88.5t122.5 191.5q0 48 -9 87q-8 -20 -22 -40q-33 -49 -93.5 -75.5t-125.5 -26.5t-125.5 26.5t-93.5 75t-33 100.5q0 53 34 102t94 75t124 26q400 0 400 -350q0 -234 -200 -417t-540 -183q-370 0 -555 137.5
t-205 362.5q240 0 370 52.5t130 120t-169 57.5t-331 -80v520z" />
    <glyph glyph-name="uni1791" unicode="&#x1791;" horiz-adv-x="1800" 
d="M724 330q85 0 240.5 145t355.5 145q125 0 227.5 -88.5t102.5 -212.5t-87.5 -221.5t-212.5 -97.5t-188 50q-62 50 -62 150t50 120q50 50 150 50q0 -50 50 -50t50 45q0 65 -150 65q-130 0 -245 -215t-385 -215q-180 0 -325 118q-145 117 -145 250v132h100q190 0 295 42.5
t105 110t-169 57.5t-331 -60v466q90 144 284.5 264t514.5 120q291 0 496 -155t205 -337q0 -102 -99 -215t-287 -113q-304 0 -304 205t191 205q130 1 180 -69q-9 -77 80.5 -79t89.5 53q0 67 -162 131t-386 64q-291 0 -424.5 -53.5t-226.5 -115.5q199 39 353.5 -28t154.5 -275
q0 -178 -219 -323q58 -65 133 -65z" />
    <glyph glyph-name="uni1792" unicode="&#x1792;" horiz-adv-x="1800" 
d="M1500 650q0 48 -9 87q-8 -20 -22 -40q-33 -49 -93.5 -75.5t-125.5 -26.5t-125.5 26.5t-93.5 75t-33 100.5q0 53 34 102t94 75t124 26q400 0 400 -350q0 -284 -120 -467t-270 -183t-344 167q-181 -167 -323 -167q-143 0 -283 137.5t-160 362.5q240 0 370 42.5t130 120
t-169 67.5t-331 -80v610q303 240 389 240t219 -90t179 -90t151 90q104 90 166 90t197 -75q134 -75 249 -75q-105 -270 -228 -270q-104 0 -238.5 60t-173.5 60t-134 -68t-156 -68q-62 0 -160 59t-136 59q-58 0 -125 -46q-49 -34 -93 -104q257 61 400 -19q154 -87 154 -295
q0 -148 -200 -278q19 -50 74 -75t138 -25t241 178q110 -158 186 -158t163.5 78.5t87.5 211.5z" />
    <glyph glyph-name="uni1793" unicode="&#x1793;" horiz-adv-x="1800" 
d="M650 400v50q-59 0 -81.5 -13t-2 -47t52 -34t31.5 44zM750 450v-310q-120 -140 -200 -140q-161 0 -280 154q-120 153 -120 296q148 150 335 150h137q-28 59 -84 83q-113 47 -388 -33v466q90 144 284.5 264t514.5 120q291 0 496 -155t205 -337q0 -142 -99 -255t-287 -113
q-304 0 -304 205t191 205q130 1 180 -69q-9 -77 80.5 -79t89.5 53q0 97 -162 166t-386 69q-291 0 -424.5 -53.5t-226.5 -115.5q123 34 261 -18t187 -153v-250q90 0 160 -52q69 -53 110 -140q40 -88 178 -88q167 0 269.5 78t182.5 293q0 -365 -130 -528t-305 -163
q-315 0 -351 322q-34 128 -114 128z" />
    <glyph glyph-name="uni1794" unicode="&#x1794;" horiz-adv-x="1800" 
d="M150 1224q0 76 144 176t188 100t157.5 -59.5t258.5 -76.5q-109 -263 -203.5 -263.5t-165.5 34.5t-149.5 15t-138.5 -150q260 60 414.5 -7t154.5 -275q0 -148 -200 -278q19 -50 134 -85t306 -35q205 0 327.5 60t122.5 200q0 55 -122.5 102.5t-397.5 -32.5v574
q0 76 129 176t165 100t159.5 -68t214.5 -68q-79 -273 -163.5 -273.5t-155.5 34.5t-144.5 15t-103.5 -140q255 80 412 -35t157 -364q0 -235 -200 -418t-540 -183q-370 0 -555 137.5t-205 362.5q240 0 370 42.5t130 110t-169 57.5t-331 -60v574z" />
    <glyph glyph-name="uni1795" unicode="&#x1795;" horiz-adv-x="1800" 
d="M1500 610q0 48 -9 87q-8 -20 -22 -40q-33 -49 -93.5 -75.5t-125.5 -26.5t-125.5 26.5t-93.5 75t-33 100.5q0 53 34 102t94 75t124 26q400 0 400 -350q0 -244 -120 -427t-270 -183t-344 167q-181 -167 -323 -167q-143 0 -283 137.5t-160 362.5q240 0 370 42.5t130 120
t-169 67.5t-331 -80v520q74 134 235 232t314 98q152 -1 360 -121t280 -120q62 0 62 81q0 80 -155 147q-156 67 -105.5 169.5t175.5 102.5q124 0 229 -80t105 -225t-158.5 -285t-315.5 -140q-165 0 -330.5 65t-300.5 65q-165 0 -289 -127q111 26 201 26q118 0 199 -45
q154 -87 154 -295q0 -148 -200 -278q19 -50 74 -75t138 -25t241 178q110 -158 186 -158t163.5 78.5t87.5 171.5z" />
    <glyph glyph-name="uni1796" unicode="&#x1796;" horiz-adv-x="1800" 
d="M1518.5 406q31.5 0 31.5 44v117q-59 -55 -81.5 -74t-2 -53t52 -34zM800 558q0 -558 -269 -558q-381 0 -381 750q0 360 135 555q134 195 303 195q109 0 204.5 -57t177.5 -138q130 175 235 185q145 10 295 -103t150 -217v-970q0 -60 -60 -130t-140 -70q-161 0 -280 154
q-120 153 -120 266q0 71 250 140t250 233q0 111 -157 229q-158 118 -271 118q-114 0 -232 -113q-182 113 -331 113q-109 -1 -194 -110q-85 -110 -85 -280q0 -174 60 -281t210 -92t150 84q0 40 -27 63.5t-53.5 -7t-102.5 -30.5q-142 0 -142 178q0 238 202 238q223 0 223 -345
z" />
    <glyph glyph-name="uni1797" unicode="&#x1797;" horiz-adv-x="1800" 
d="M1518.5 406q31.5 0 31.5 44v117q-59 -55 -81.5 -74t-2 -53t52 -34zM845 1060q277 0 805 -80v-840q-120 -140 -200 -140q-161 0 -280 154q-120 153 -120 296q208 20 467 183q-471 77 -701 77q-151 0 -246 -57q330 -76 330 -316q0 -337 -376 -337q-374 0 -374 285
q0 241 245 243q145 1 197 -93q52 -93 -47 -154q-98 -60 -191 22q-93 81 -114 53t42 -83t240 -44q138 11 138 166q0 112 -150 163.5t-360 6.5q0 205 209 350t486 145zM368 981q-107 50 -218 33v246q315 240 404 240q88 0 226 -90q137 -90 184 -90t155 90t172 90q63 0 202 -75
t257 -75q-108 -270 -235 -270q-107 0 -245.5 70t-178.5 70q-41 0 -138.5 -78t-160.5 -78q-64 0 -200 84t-175 84q-40 0 -110 -38q104 -8 245 -147z" />
    <glyph glyph-name="uni1798" unicode="&#x1798;" horiz-adv-x="1800" 
d="M150 1224q0 76 144 176t188 100t157.5 -59.5t258.5 -76.5q-109 -263 -203.5 -263.5t-165.5 34.5t-149.5 15t-138.5 -150q260 60 414.5 -7t154.5 -275q0 -148 -200 -278q19 -50 134 -85t306 -35q205 0 327.5 60t122.5 200q0 55 -122.5 102.5t-397.5 -32.5v574
q0 76 129 176t165 100t159.5 -68t214.5 -68q-79 -273 -163.5 -273.5t-155.5 34.5t-144.5 15t-103.5 -140q255 80 412 -35t157 -364q0 -235 -200 -418t-540 -183q-370 0 -555 137.5t-205 362.5q240 0 370 42.5t130 110t-169 57.5t-331 -60v574zM849 732q132 -121 246 -141.5
t266 -19.5q-69 -125 -219 -157q-149 -31 -422 68q113 94 129 250z" />
    <glyph glyph-name="uni1799" unicode="&#x1799;" horiz-adv-x="2600" 
d="M593.5 390.5q141.5 -50.5 396.5 -50.5q205 0 357.5 65t152.5 175q0 55 -122.5 102.5t-397.5 -32.5v574q0 76 129 176t165 100t159.5 -68t214.5 -68q-79 -273 -163.5 -273.5t-155.5 34.5t-144.5 15t-103.5 -140q255 80 412 -35t157 -364q0 -137 -68 -256q107 -25 268 -25
q205 0 327.5 60t122.5 200q0 55 -122.5 102.5t-397.5 -32.5v574q0 76 129 176t165 100t159.5 -68t214.5 -68q-79 -273 -163.5 -273.5t-155.5 34.5t-144.5 15t-103.5 -140q255 80 412 -35t157 -364q0 -235 -200 -418t-520 -183q-245 0 -431 80q-164 -80 -419 -80
q-730 0 -730 830q0 670 390 670q310 0 310 -471q0 -241 -94.5 -339.5t-213.5 -84.5t-177 106t-2 194t147 135q38 -59 106 -73q78 -17 94 57q15 73 -131 104q-93 19 -188 -58t-117 -180q-7 -34 1.5 -133.5t92.5 -207.5t225.5 -158.5z" />
    <glyph glyph-name="uni179a" unicode="&#x179a;" horiz-adv-x="900" 
d="M650 450v117q-59 -55 -81.5 -74t-2 -53t52 -34t31.5 44zM750 140q-120 -140 -200 -140q-161 0 -280 154q-120 153 -120 296q208 20 467 183h5q-28 26 -84 50q-113 47 -388 -33v574q0 76 129 176t165 100t149.5 -68t206.5 -68q-81 -273 -165.5 -273.5t-155.5 34.5
t-134.5 15t-93.5 -140q174 55 312 3t187 -153v-710z" />
    <glyph glyph-name="uni179b" unicode="&#x179b;" horiz-adv-x="2330" 
d="M425 1137q-84 -54 -157 -116q155 39 268.5 -28t113.5 -275q0 -118 -134 -222q-171 -134 -130 -166.5t79 34t92 66.5q143 0 143 -160q0 -270 -275 -270t-275 280q0 90 52 177q52 86 248 159q-16 112 -126.5 112t-173.5 -58v446q70 144 201.5 264t370.5 120t402 -109
t216 -216l53 -108l-272 -464q53 -144 160.5 -213.5t298.5 -69.5q205 0 327.5 60t122.5 200q0 55 -122.5 102.5t-397.5 -32.5v574q0 76 129 176t165 100t159.5 -68t214.5 -68q-79 -273 -163.5 -273.5t-155.5 34.5t-144.5 15t-103.5 -140q255 80 412 -35t157 -364
q0 -260 -190 -430.5t-550 -170.5q-230 0 -405 103.5t-258 309.5l321 464q-81 146 -195 230q-114 83 -254 83q-141 0 -224 -53z" />
    <glyph glyph-name="uni179c" unicode="&#x179c;" horiz-adv-x="1800" 
d="M300 950q231 100 555.5 100t559.5 -125t235 -374q0 -275 -250 -413t-550 -138t-500 112q-200 113 -200 378q0 155 100 232q100 78 330 78q150 0 275 -48.5t125 -158.5t-142.5 -164t-335.5 15q-119 47 -122 156q-80 0 -80 -110q0 -60 94.5 -120t295.5 -60q270 0 440 62
q170 63 170 188q0 170 -212 254q-212 85 -424 85t-320.5 -30t-193.5 -80v401q0 69 158 190q157 120 246 120q88 0 226 -90q137 -90 184 -90t155 90t172 90q63 0 202 -75t257 -75q-108 -270 -235 -270q-107 0 -245.5 70t-178.5 70q-41 0 -138.5 -78t-160.5 -78q-64 0 -181 67
t-156 67q-40 0 -104 -50t-51 -198z" />
    <glyph glyph-name="uni179d" unicode="&#x179d;" horiz-adv-x="1800" 
d="M368 981q-107 50 -218 33v246q315 240 404 240q88 0 226 -90q137 -90 184 -90t155 90t172 90q63 0 202 -75t257 -75q-108 -270 -235 -270q-107 0 -245.5 70t-178.5 70q-41 0 -138.5 -78t-160.5 -78q-64 0 -200 84t-175 84q-40 0 -110 -38q104 -8 245 -147zM1650 522v-382
q-120 -140 -200 -140q-161 0 -280 154q-120 153 -120 296q112 11 239 63q-36 6 -74 14q56 62 79 140q-311 43 -498 43q-251 0 -398.5 -80t-147.5 -160q0 -130 149 -148q53 145 151.5 211.5t198.5 66.5q120 0 191.5 -77t35 -175t-102 -98t-105.5 43.5t-100.5 43t-78.5 -57.5
q-18 -78 64 -142q-64 -137 -215 -137q-148 0 -218 83t-70 216v431q85 167 251.5 248.5t443.5 81.5t805 -80v-294q86 3 188 19q-50 -131 -188 -183zM1550 499q-37 -5 -79 -4l-2 -2q-23 -19 -2.5 -53t52 -34t31.5 44v49z" />
    <glyph glyph-name="uni179e" unicode="&#x179e;" horiz-adv-x="1800" 
d="M1615 414q-48 -124 -165 -231q-200 -183 -540 -183q-370 0 -555 137.5t-205 362.5q240 0 370 42.5t130 110t-169 57.5t-331 -60v574q0 76 144 176t188 100t157.5 -59.5t258.5 -76.5q-109 -263 -203.5 -263.5t-165.5 34.5t-149.5 15t-138.5 -150q260 60 414.5 -7
t154.5 -275q0 -148 -200 -278q19 -50 134 -85t306 -35q205 0 328 60q19 10 36 21q-89 7 -199 30q99 109 93 266q101 -69 186 -94q-20 42 -116 80q-123 47 -398 -33v574q0 76 129 176t165 100t159.5 -68t214.5 -68q-79 -273 -163.5 -273.5t-155.5 34.5t-144.5 15t-103.5 -140
q255 80 412 -35t157 -364v-11q86 3 188 19q-51 -134 -195 -186q-13 -5 -28 -9z" />
    <glyph glyph-name="uni179f" unicode="&#x179f;" horiz-adv-x="2330" 
d="M526 1035q99 27 224 27q239 0 399.5 -75t266.5 -290l-152 -233q53 -144 316 -144q205 0 327.5 60t122.5 200q0 55 -122.5 102.5t-397.5 -32.5v574q0 76 129 176t165 100t159.5 -68t214.5 -68q-79 -273 -163.5 -273.5t-155.5 34.5t-144.5 15t-103.5 -140q255 80 412 -35
t157 -364q0 -260 -190 -430.5t-510 -170.5q-230 0 -395 103.5t-108 179.5l186 223q-75 124 -205.5 185t-270.5 61q-387 0 -387 -242q0 -220 198 -220q197 0 218 73q20 72 -34 63q-33 -76 -172.5 -76t-139.5 165t224 165t221 -280q-3 -400 -314 -400q-145 0 -248 128.5
t-103 305.5q0 397 240 543q-140 121 -233 118q86 205 242 305t199 100q44 0 193 -68t259 -68q-85 -263 -197.5 -263.5t-203 39.5t-149.5 46t-115 -44q63 -15 141 -107z" />
    <glyph glyph-name="uni17a0" unicode="&#x17a0;" horiz-adv-x="2540" 
d="M2290 450v117q-59 -55 -81.5 -74t-2 -53t52 -34t31.5 44zM1650 601q0 -235 -200 -418t-540 -183q-370 0 -555 137.5t-205 362.5q240 0 370 42.5t130 110t-169 57.5t-331 -60v574q0 76 144 176t188 100t157.5 -59.5t258.5 -76.5q-109 -263 -203.5 -263.5t-165.5 34.5
t-149.5 15t-138.5 -150q260 60 414.5 -7t154.5 -275q0 -148 -200 -278q19 -50 134 -85t306 -35q205 0 327.5 60t122.5 200q0 55 -102.5 102.5t-377.5 -32.5v524q0 76 198 201t418 125q270 0 512 -113t242 -217v-970q0 -60 -60 -130t-140 -70q-161 0 -280 154
q-120 153 -120 266q0 71 250 140t250 233q0 111 -279 254q-280 143 -450 143q-141 0 -264 -45q-124 -45 -176 -145q255 80 392 -35t137 -364z" />
    <glyph glyph-name="uni17a1" unicode="&#x17a1;" horiz-adv-x="2550" 
d="M724 330q85 0 240.5 145t355.5 145q125 0 227.5 -88.5t102.5 -212.5t-87.5 -221.5t-212.5 -97.5t-188 50q-62 50 -62 150t50 120q50 50 150 50q0 -50 50 -50t50 45q0 65 -150 65q-130 0 -245 -215t-385 -215q-180 0 -325 118q-145 117 -145 250v132h100q190 0 295 42.5
t105 110t-169 57.5t-331 -60v466q90 144 284.5 264t514.5 120q291 0 496 -155t205 -337q0 -102 -99 -215t-287 -113q-304 0 -304 205t191 205q130 1 180 -69q-9 -77 80.5 -79t89.5 53q0 67 -162 131t-386 64q-291 0 -424.5 -53.5t-226.5 -115.5q199 39 353.5 -28t154.5 -275
q0 -178 -219 -323q58 -65 133 -65zM2400 -400q0 -300 -300 -300q-200 0 -300 150q-100 -150 -300 -150q-350 0 -350 260q160 0 206 55q45 55 44 80q0 25 -50 25t-50 -70q-150 0 -150 100q0 150 175 150t175 -150q0 -100 -50 -190q0 -40 100 -40q160 0 250 140
q100 -140 270 -140q180 0 180 130v983q-6 26 -62 50q-113 47 -338 -33v574q0 76 104 176t140 100t149.5 -68t206.5 -68q-81 -273 -165.5 -273.5t-145.5 34.5t-109.5 15t-78.5 -140q124 55 262 3t187 -153v-1250z" />
    <glyph glyph-name="uni17a2" unicode="&#x17a2;" horiz-adv-x="1800" 
d="M650 450v117q-59 -55 -81.5 -74t-2 -53t52 -34t31.5 44zM750 140q-120 -140 -200 -140q-161 0 -280 154q-120 153 -120 296q208 20 467 183h5q-28 26 -84 50q-113 47 -388 -33v574q0 76 129 176t165 100t149.5 -68t206.5 -68q-81 -273 -165.5 -273.5t-155.5 34.5
t-134.5 15t-93.5 -140q174 55 312 3t187 -153v-710zM1550 450v117q-59 -55 -81.5 -74t-2 -53t52 -34t31.5 44zM1650 140q-120 -140 -200 -140q-161 0 -280 154q-120 153 -120 296q208 20 467 183h5q-28 26 -84 50q-113 47 -388 -33v574q0 76 129 176t165 100t149.5 -68
t206.5 -68q-81 -273 -165.5 -273.5t-155.5 34.5t-134.5 15t-93.5 -140q174 55 312 3t187 -153v-710zM808 707q121 -81 211 -75.5t204 39.5q-30 -127 -137 -188q-107 -59 -330 -28q68 108 52 252z" />
    <glyph glyph-name="uni17a3" unicode="&#x17a3;" horiz-adv-x="1800" 
d="M650 450v117q-59 -55 -81.5 -74t-2 -53t52 -34t31.5 44zM750 140q-120 -140 -200 -140q-161 0 -280 154q-120 153 -120 296q208 20 467 183h5q-28 26 -84 50q-113 47 -388 -33v574q0 76 129 176t165 100t149.5 -68t206.5 -68q-81 -273 -165.5 -273.5t-155.5 34.5
t-134.5 15t-93.5 -140q174 55 312 3t187 -153v-710zM1550 450v117q-59 -55 -81.5 -74t-2 -53t52 -34t31.5 44zM1650 140q-120 -140 -200 -140q-161 0 -280 154q-120 153 -120 296q208 20 467 183h5q-28 26 -84 50q-113 47 -388 -33v574q0 76 129 176t165 100t149.5 -68
t206.5 -68q-81 -273 -165.5 -273.5t-155.5 34.5t-134.5 15t-93.5 -140q174 55 312 3t187 -153v-710zM808 707q121 -81 211 -75.5t204 39.5q-30 -127 -137 -188q-107 -59 -330 -28q68 108 52 252z" />
    <glyph glyph-name="uni17a4" unicode="&#x17a4;" horiz-adv-x="2540" 
d="M650 450v117q-59 -55 -81.5 -74t-2 -53t52 -34t31.5 44zM750 140q-120 -140 -200 -140q-161 0 -280 154q-120 153 -120 296q208 20 467 183h5q-28 26 -84 50q-113 47 -388 -33v574q0 76 129 176t165 100t149.5 -68t206.5 -68q-81 -273 -165.5 -273.5t-155.5 34.5
t-134.5 15t-93.5 -140q174 55 312 3t187 -153v-710zM808 707q121 -81 211 -75.5t204 39.5q-30 -127 -137 -188q-107 -59 -330 -28q68 108 52 252zM1550 450v117q-59 -55 -81.5 -74t-2 -53t52 -34t31.5 44zM2290 450v117q-59 -55 -81.5 -74t-2 -53t52 -34t31.5 44zM1151 1000
q174 55 312 3t187 -153v-710q-120 -140 -200 -140q-161 0 -280 154q-120 153 -120 296q208 20 467 183h5q-28 26 -84 50q-113 47 -388 -33v524q0 76 188 201t398 125q270 0 512 -113t242 -217v-970q0 -60 -60 -130t-140 -70q-161 0 -280 154q-120 153 -120 266q0 71 250 140
t250 233q0 111 -279 254q-279 142 -430 142q-152 1 -268 -44q-118 -45 -162 -145z" />
    <glyph glyph-name="uni17a5" unicode="&#x17a5;" horiz-adv-x="1800" 
d="M1518.5 406q31.5 0 31.5 44v117q-59 -55 -81.5 -74t-2 -53t52 -34zM845 1060q277 0 805 -80v-840q-120 -140 -200 -140q-161 0 -280 154q-120 153 -120 296q208 20 467 183q-471 77 -721 77q-251 0 -373.5 -65t-122.5 -225t238 -160q43 0 56 52q-194 -5 -194 149
q0 153 216 173q216 19 283 -151t-31 -326q-99 -157 -278 -157q-440 0 -440 495q0 315 209 440t486 125zM150 1199q74 127 235 220.5t314 93.5q152 -1 360 -115.5t280 -114.5q62 0 62 77q0 76 -155 140q-156 64 -105.5 161.5t175.5 97.5q124 0 229 -76t105 -214
t-158.5 -271.5t-315.5 -133.5q-165 0 -330.5 62t-300.5 62q-165 0 -266 -98q74 -13 134 -95l-86 -67q-107 101 -177 84v187z" />
    <glyph glyph-name="uni17a6" unicode="&#x17a6;" horiz-adv-x="2700" 
d="M1550 450v117q-59 -55 -81.5 -74t-2 -53t52 -34t31.5 44zM800 558q0 -558 -269 -558q-381 0 -381 750q0 360 164.5 555t585.5 195q420 0 585 -113t165 -217v-970q0 -60 -60 -130t-140 -70q-161 0 -280 154q-120 153 -120 266q0 71 250 140t250 233q0 111 -140 234
t-498.5 123t-495 -115t-136.5 -285q0 -174 60 -281t210 -92t150 84q0 40 -27 63.5t-53.5 -7t-102.5 -30.5q-142 0 -142 178q0 238 202 238q223 0 223 -345zM1254 -410q19 -47 86 -52v52h-86zM2550 -400q-50 -150 -200 -225t-400 -75q-260 1 -325.5 63t-90.5 144
q-25 83 -84 83v-65q0 -96 -48 -160.5t-134 -64.5q-187 0 -258 272q37 114 183 114h147q-42 35 -411 35q-227 0 -340.5 -33t-113.5 -100q0 -55 77 -55q-17 38 19 80.5t109 42.5t128 -51q55 -50 55 -129q0 -176 -226 -176q-104 0 -195 83q-92 82 -92 208q1 162 147 259
q147 98 448 97q249 0 377 -38t128 -104v-119q66 0 117 -34t80.5 -68.5t302.5 -33.5q225 0 338 75q112 75 112 225v730q0 55 -122.5 102.5t-397.5 -32.5v574q0 76 129 176t165 100t97.5 -41t95 -26.5t33.5 56.5q0 140 -213 94q-143 57 -119.5 181.5t148.5 124.5
q124 0 229 -80t105 -325q0 -174 -40.5 -283.5t-125 -110t-155.5 34.5t-144.5 15t-103.5 -140q255 80 412 -35t157 -364v-1001z" />
    <glyph glyph-name="uni17a7" unicode="&#x17a7;" horiz-adv-x="1800" 
d="M1250 1009q0 191 -450 191t-450 -180q0 -77 36 -121v9q0 49 36.5 94t101.5 69.5t134 24.5q68 0 133 -24.5t102 -69.5t37 -94t-36 -93.5t-100.5 -69.5t-135.5 -25q-508 0 -508 320q0 460 750 460t750 -411q0 -219 -380 -420.5t-630 -268.5q19 -50 89 -70t161 -20
q212 0 316 82.5t104 227.5q340 130 340 10v-430q-1 -225 -220 -225q-73 0 -170 25q50 0 50 294q-160 -294 -510 -294q-250 0 -450 137.5t-200 260.5v122q450 30 775 171.5t325 317.5z" />
    <glyph glyph-name="uni17a8" unicode="&#x17a8;" horiz-adv-x="1800" 
d="M1250 1009q0 191 -450 191t-450 -180q0 -77 36 -121v9q0 49 36.5 94t101.5 69.5t134 24.5q68 0 133 -24.5t102 -69.5t37 -94t-36 -93.5t-100.5 -69.5t-135.5 -25q-508 0 -508 320q0 460 750 460t750 -411q0 -219 -380 -420.5t-630 -268.5q19 -50 89 -70t161 -20
q212 0 316 82.5t104 227.5q340 130 340 10v-430q-1 -225 -220 -225q-73 0 -170 25q50 0 50 294q-160 -294 -510 -294q-250 0 -450 137.5t-200 260.5v122q450 30 775 171.5t325 317.5zM418 1447q-157 94 -268 77v206q315 240 404 240q88 0 226 -90q137 -90 184 -90t155 90
t172 90q63 0 202 -75t257 -75q-108 -250 -235 -250q-107 0 -245 60q-139 60 -179 60q-41 0 -138 -83q-98 -83 -161 -83q-64 0 -200 89t-175 89q-40 0 -110 -38q104 -8 200 -92z" />
    <glyph glyph-name="uni17a9" unicode="&#x17a9;" horiz-adv-x="1900" 
d="M1250 1009q0 191 -450 191t-450 -180q0 -77 36 -121v9q0 49 36.5 94t101.5 69.5t134 24.5q68 0 133 -24.5t102 -69.5t37 -94t-36 -93.5t-100.5 -69.5t-135.5 -25q-508 0 -508 320q0 460 750 460t750 -411q0 -219 -380 -420.5t-630 -268.5q19 -50 89 -70t161 -20
q212 0 316 82.5t104 227.5q340 130 340 10v-430q-1 -225 -220 -225q-73 0 -170 25q50 0 50 294q-160 -294 -510 -294q-250 0 -450 137.5t-200 260.5v122q450 30 775 171.5t325 317.5zM1750 0v681q150 0 150 -101v-580h-150z" />
    <glyph glyph-name="uni17aa" unicode="&#x17aa;" horiz-adv-x="1800" 
d="M1250 1009q0 191 -450 191t-450 -180q0 -77 36 -121v9q0 49 36.5 94t101.5 69.5t134 24.5q68 0 133 -24.5t102 -69.5t37 -94t-36 -93.5t-100.5 -69.5t-135.5 -25q-508 0 -508 320q0 460 750 460t750 -411q0 -219 -380 -420.5t-630 -268.5q19 -50 89 -70t161 -20
q212 0 316 82.5t104 227.5q340 130 340 10v-430q-1 -225 -220 -225q-73 0 -170 25q50 0 50 294q-160 -294 -510 -294q-250 0 -450 137.5t-200 260.5v122q450 30 775 171.5t325 317.5zM150 1689q74 127 235 220.5t314 93.5q152 -1 360 -115.5t280 -114.5q62 0 62 77
q0 76 -155 140q-156 64 -105.5 161.5t175.5 97.5q124 0 229 -76t105 -214t-158.5 -271.5t-315.5 -133.5q-165 0 -330.5 62t-300.5 62q-165 0 -266 -98q74 -13 134 -95l-86 -67q-107 101 -177 84v187z" />
    <glyph glyph-name="uni17ab" unicode="&#x17ab;" horiz-adv-x="1800" 
d="M150 1224q0 76 144 176t188 100t157.5 -59.5t258.5 -76.5q-109 -263 -203.5 -263.5t-165.5 34.5t-149.5 15t-138.5 -150q260 60 414.5 -7t154.5 -275q0 -148 -200 -278q19 -50 134 -85t306 -35q205 0 327.5 60t122.5 200q0 55 -122.5 102.5t-397.5 -32.5v574
q0 76 129 176t165 100t159.5 -68t214.5 -68q-79 -273 -163.5 -273.5t-155.5 34.5t-144.5 15t-103.5 -140q255 80 412 -35t157 -364q0 -235 -200 -418t-540 -183q-370 0 -555 137.5t-205 362.5q240 0 370 42.5t130 110t-169 57.5t-331 -60v574zM1650 -250q0 -125 -127 -188
q-126 -62 -379 -62q-347 0 -520 -99t-173 -298q-300 59 -300 231q0 171 248 244q248 72 745 72q178 0 267 25q90 25 90 75q0 100 -82 100q-68 0 -68 -100q-220 0 -220 100q0 75 67 112q68 38 202 38q125 0 188 -62q62 -63 62 -188z" />
    <glyph glyph-name="uni17ac" unicode="&#x17ac;" horiz-adv-x="1800" 
d="M150 1224q0 76 144 176t188 100t157.5 -59.5t258.5 -76.5q-109 -263 -203.5 -263.5t-165.5 34.5t-149.5 15t-138.5 -150q260 60 414.5 -7t154.5 -275q0 -148 -200 -278q19 -50 134 -85t306 -35q205 0 327.5 60t122.5 200q0 55 -122.5 102.5t-397.5 -32.5v574
q0 76 129 176t165 100t159.5 -68t214.5 -68q-79 -273 -163.5 -273.5t-155.5 34.5t-144.5 15t-103.5 -140q255 80 412 -35t157 -364q0 -235 -200 -418t-540 -183q-370 0 -555 137.5t-205 362.5q240 0 370 42.5t130 110t-169 57.5t-331 -60v574zM1650 -250q0 -125 -127 -188
q-50 -24 -121 -39q120 -113 348 -190q-187 -108 -302 -76q-114 32 -190 126q-50 61 -48 118q-32 -1 -66 -1q-347 0 -520 -99t-173 -298q-300 59 -300 231q0 171 248 244q248 72 745 72q178 0 267 25q90 25 90 75q0 100 -82 100q-68 0 -68 -100q-220 0 -220 100q0 75 67 112
q68 38 202 38q125 0 188 -62q62 -63 62 -188z" />
    <glyph glyph-name="uni17ad" unicode="&#x17ad;" horiz-adv-x="1800" 
d="M1518.5 406q31.5 0 31.5 44v117q-59 -55 -81.5 -74t-2 -53t52 -34zM800 558q0 -558 -269 -558q-381 0 -381 750q0 360 135 555q134 195 303 195q109 0 204.5 -57t177.5 -138q130 175 235 185q145 10 295 -103t150 -217v-970q0 -60 -60 -130t-140 -70q-161 0 -280 154
q-120 153 -120 266q0 71 250 140t250 233q0 111 -157 229q-158 118 -271 118q-114 0 -232 -113q-182 113 -331 113q-109 -1 -194 -110q-85 -110 -85 -280q0 -174 60 -281t210 -92t150 84q0 40 -27 63.5t-53.5 -7t-102.5 -30.5q-142 0 -142 178q0 238 202 238q223 0 223 -345
zM1650 -250q0 -125 -127 -188q-126 -62 -379 -62q-347 0 -520 -99t-173 -298q-300 59 -300 231q0 171 248 244q248 72 745 72q178 0 267 25q90 25 90 75q0 100 -82 100q-68 0 -68 -100q-220 0 -220 100q0 75 67 112q68 38 202 38q125 0 188 -62q62 -63 62 -188z" />
    <glyph glyph-name="uni17ae" unicode="&#x17ae;" horiz-adv-x="1800" 
d="M1518.5 406q31.5 0 31.5 44v117q-59 -55 -81.5 -74t-2 -53t52 -34zM800 558q0 -558 -269 -558q-381 0 -381 750q0 360 135 555q134 195 303 195q109 0 204.5 -57t177.5 -138q130 175 235 185q145 10 295 -103t150 -217v-970q0 -60 -60 -130t-140 -70q-161 0 -280 154
q-120 153 -120 266q0 71 250 140t250 233q0 111 -157 229q-158 118 -271 118q-114 0 -232 -113q-182 113 -331 113q-109 -1 -194 -110q-85 -110 -85 -280q0 -174 60 -281t210 -92t150 84q0 40 -27 63.5t-53.5 -7t-102.5 -30.5q-142 0 -142 178q0 238 202 238q223 0 223 -345
zM1650 -250q0 -125 -127 -188q-50 -24 -121 -39q120 -113 348 -190q-187 -108 -302 -76q-114 32 -190 126q-50 61 -48 118q-32 -1 -66 -1q-347 0 -520 -99t-173 -298q-300 59 -300 231q0 171 248 244q248 72 745 72q178 0 267 25q90 25 90 75q0 100 -82 100q-68 0 -68 -100
q-220 0 -220 100q0 75 67 112q68 38 202 38q125 0 188 -62q62 -63 62 -188z" />
    <glyph glyph-name="uni17af" unicode="&#x17af;" horiz-adv-x="1800" 
d="M280.5 575.5q-130.5 24.5 -130.5 199.5q0 225 280 225q320 0 320 -300q0 -200 -140 -260q19 -43 64 -68t114.5 -25t126.5 69l71 96l47 -52q47 -52 117 -82q70 -31 132 -31q63 0 140 61q78 62 78 292v97q1 97 -239 250t-400 153q-349 0 -565 -100q-145 0 -145 111
q0 100 25 195q24 94 24 194t-150 100q72 250 200 250q250 0 250 -280q0 -147 -158 -358q158 90 273 139t285 49q200 1 475 -171l137 -86q129 -83 138 -160v-522q0 -235 -150 -398t-260 -163q-90 0 -192 76l-101 75q-97 -151 -202 -151q-245 0 -420 138q-175 137 -175 249.5
t50 112.5q170 0 275 42.5t105 97.5q2 70 -31 70t-85.5 -79.5t-183 -55z" />
    <glyph glyph-name="uni17b0" unicode="&#x17b0;" horiz-adv-x="1800" 
d="M1518.5 406q31.5 0 31.5 44v117q-59 -55 -81.5 -74t-2 -53t52 -34zM800 558q0 -558 -269 -558q-381 0 -381 750q0 360 135 555q134 195 303 195q109 0 204.5 -57t177.5 -138q130 175 235 185q145 10 295 -103t150 -217v-970q0 -60 -60 -130t-140 -70q-161 0 -280 154
q-120 153 -120 266q0 71 250 140t250 233q0 111 -157 229q-158 118 -271 118q-114 0 -232 -113q-182 113 -331 113q-109 -1 -194 -110q-85 -110 -85 -280q0 -174 60 -281t210 -92t150 84q0 40 -27 63.5t-53.5 -7t-102.5 -30.5q-142 0 -142 178q0 238 202 238q223 0 223 -345
zM400 -375q47 0 483 127q267 87 267 127q0 49 -41 71q191 0 191 -99q0 -77 -349 -180l-321 -101q32 -42 78 -63t105 -21q46 0 87 45l83 106q41 35 87 35q33 0 62 -35l60 -69q33 -35 79 -35t69 35q22 34 22 104q0 129 -45 278q183 -89 183 -278q0 -186 -57 -278
q-58 -93 -172 -93q-138 0 -183 46l-92 93q-137 -140 -228 -140q-170 0 -269 124t-99 201z" />
    <glyph glyph-name="uni17b1" unicode="&#x17b1;" horiz-adv-x="1800" 
d="M323 1376q-173 44 -173 205q0 190 129 310t488 120q327 0 553 -117q227 -117 332 -350q20 -46 20 -77q0 -41 -37 -55q-13 -5 -26 -5q-51 0 -103 74q-97 140 -287 210q-189 70 -451 70q-254 0 -372 -45q-117 -45 -117 -135q106 79 205 79q86 0 134.5 -37t49.5 -111
q0 -13 -1 -25q105 13 233 13q750 0 750 -411q0 -219 -380 -420.5t-630 -268.5q19 -50 89 -70t161 -20q212 0 316 82.5t104 227.5q340 130 340 10v-430q-1 -225 -220 -225q-73 0 -170 25q50 0 50 294q-160 -294 -510 -294q-250 0 -450 137.5t-200 260.5v122q450 30 775 171.5
t325 317.5q0 191 -450 191t-450 -180q0 -77 36 -121v9q0 49 36.5 94t101.5 69.5t134 24.5q68 0 133 -24.5t102 -69.5t37 -94t-36 -93.5t-100.5 -69.5t-135.5 -25q-508 0 -508 320q0 221 173 336z" />
    <glyph glyph-name="uni17b2" unicode="&#x17b2;" horiz-adv-x="1800" 
d="M50 1951q300 -10 450 -123t150 -328v-189q1 -210 -149 -410q-151 -200 -150 -321q0 -130 175 -180q174 -50 350 -50q175 0 325 66q149 66 149 126q1 59 -77 87t-322 -129q-1 201 274 396q226 135 226 220q-1 85 -211 85q-209 0 -230 -101q111 1 100.5 -99.5t-88.5 -100.5
q-237 0 -180 300q29 150 137 225q109 75 296 75q188 1 282 -84t94 -256q0 -110 -70 -209t-211 -187q281 -113 281 -313t-225 -326q-225 -125 -540 -125q-315 1 -525 100q-210 100 -210 480q0 121 74 330q75 210 76 515q0 305 -251 526z" />
    <glyph glyph-name="uni17b3" unicode="&#x17b3;" horiz-adv-x="1800" 
d="M666 1487q106 13 234 13q183 0 321 -24q-40 73 -37 182l2 44q-179 59 -418 59q-254 0 -372 -45q-117 -45 -117 -135q106 79 205 79q86 0 134.5 -37t49.5 -111q0 -13 -2 -25zM332 1382q-182 39 -182 199q0 190 129 310t488 120q262 0 459 -75q85 271 338 312q37 12 70 12
q133 0 194 -191q-303 -14 -387 -252q136 -108 211 -273q48 -108 -27 -167q-36 -28 -80 -38q105 -96 105 -250q0 -219 -380 -420.5t-630 -268.5q19 -50 89 -70t161 -20q212 0 316 82.5t104 227.5q340 130 340 10v-430q-1 -225 -220 -225q-73 0 -170 25q50 0 50 294
q-160 -294 -510 -294q-250 0 -450 137.5t-200 260.5v122q450 30 775 171.5t325 317.5q0 191 -450 191t-450 -180q0 -77 36 -121v9q0 49 36.5 94t101.5 69.5t134 24.5q68 0 133 -24.5t102 -69.5t37 -94t-36 -93.5t-100.5 -69.5t-135.5 -25q-508 0 -508 320q0 227 182 342z
" />
    <glyph glyph-name="uni17b4" unicode="&#x17b4;" horiz-adv-x="151" 
d="M-495 1349q0 47 55 86q92 65 183 65q109 0 188 -71l116 -101q103 -90 103 -200v-1028q0 -100 -150 -100v1128q0 44 -56 92l-96 85q-63 55 -145 55q-77 0 -175 -74q-23 33 -23 63zM151 2000v-500q-150 0 -150 100v400h150z" />
    <glyph glyph-name="uni17b5" unicode="&#x17b5;" horiz-adv-x="151" 
d="M-495 1349q0 47 55 86q92 65 183 65q109 0 188 -71l116 -101q103 -90 103 -200v-1028q0 -100 -150 -100v1128q0 44 -56 92l-96 85q-63 55 -145 55q-77 0 -175 -74q-23 33 -23 63z" />
    <glyph glyph-name="uni17b6" unicode="&#x17b6;" horiz-adv-x="900" 
d="M618.5 406q31.5 0 31.5 44v117q-59 -55 -81.5 -74t-2 -53t52 -34zM-6.5 1343q126.5 157 231.5 157q165 0 345 -123t180 -227v-950q0 -60 -60 -130t-140 -70q-161 0 -280 154q-120 153 -120 266q0 71 250 140t250 233q0 131 -182.5 239t-325.5 108q-114 0 -295 -145
q20 191 146.5 348z" />
    <glyph glyph-name="uni17b7" unicode="&#x17b7;" 
d="M-879 2300q229 0 400 -150q172 -150 229 -400q0 -50 -171 -50q-279 50 -475 50q-157 0 -323 -50q-118 0 -174 66q-57 65 -57 127q0 157 143 282t428 125zM-1145 1879q120 21 249 21q195 0 446 -52q-23 73 -139 137.5t-288 64.5q-125 0 -196.5 -50.5t-71.5 -120.5z" />
    <glyph glyph-name="uni17b8" unicode="&#x17b8;" 
d="M-275 2351q125 0 125 -155q0 -151 -104 -427q2 -10 4 -19q0 -50 -171 -50q-279 50 -475 50q-157 0 -323 -50q-118 0 -174 66q-57 65 -57 127q0 157 143 282t408 125q159 0 376 -150q94 -66 159 -150q63 2 64 100q0 51 -101 101q0 150 125 150h1zM-1145 1879
q120 21 249 21q195 0 446 -52q-23 73 -174 137.5t-273 64.5q-105 0 -176.5 -50.5t-71.5 -120.5z" />
    <glyph glyph-name="uni17b9" unicode="&#x17b9;" 
d="M-899 2300q112 0 253 -75q11 76 53 119q56 56 169 56t169 -56t56 -169t-56 -169q-32 -32 -82 -46q61 -94 87 -210q0 -50 -171 -50q-279 50 -475 50q-157 0 -323 -50q-118 0 -174 66q-57 65 -57 127q0 157 143 282t408 125zM-1145 1879q120 21 249 21q195 0 446 -52
q-23 73 -174 137.5t-273 64.5q-105 0 -176.5 -50.5t-71.5 -120.5zM-424 2100q75 0 75 75t-75 75t-75 -75t75 -75z" />
    <glyph glyph-name="uni17ba" unicode="&#x17ba;" 
d="M-624 2501q124 0 125 -157q0 -100 -22 -196q93 -65 157 -148q63 2 64 100q0 51 -101 101q0 151 126 150q125 0 125 -155q0 -151 -104 -427q2 -10 4 -19q0 -50 -171 -50q-279 50 -475 50q-157 0 -323 -50q-118 0 -174 66q-57 65 -57 127q0 157 143 282t408 125
q110 0 246 -71q4 25 4 59q0 51 -101 91q0 122 126 122zM-1145 1879q120 21 249 21q195 0 446 -52q-23 73 -174 137.5t-273 64.5q-105 0 -176.5 -50.5t-71.5 -120.5z" />
    <glyph glyph-name="uni17bb" unicode="&#x17bb;" 
d="M-709 -325.5q-40 33.5 -40 117.5t48.5 120.5t140.5 36.5q109 0 158.5 -68.5t50.5 -146.5v-207q0 -97 -40 -162t-159 -65q-200 0 -215 327q76 -67 200.5 -60.5t124.5 103.5q0 69 -40 69q-1 -49 -36 -73.5t-94 -24.5t-99 33.5z" />
    <glyph glyph-name="uni17bc" unicode="&#x17bc;" 
d="M-700 -220q0 -131 -100 -230q0 -50 124 -30q125 20 250 225l126 205q-50 -324 -162 -487q-112 -162 -288 -162q-175 0 -262 63q-88 62 -88 187q95 -3 172 28q78 31 78 91t-75 60t-75 -80q-100 0 -100 150q0 75 50 112q50 38 150 38t150 -42q50 -43 50 -128z" />
    <glyph glyph-name="uni17bd" unicode="&#x17bd;" 
d="M-740 -200q0 -200 -150 -250q0 -50 100 -50q50 0 150 100q50 -100 100 -100q100 0 100 200q0 100 -100 100q0 150 100 150t100 -250q0 -100 -50 -250t-200 -150q-50 0 -150 100q-100 -100 -150 -100t-150 75t-100 126q300 110 300 199q0 50 -47.5 50t-52.5 -100
q-150 0 -150 150t175 150t175 -150z" />
    <glyph glyph-name="uni17be" unicode="&#x17be;" horiz-adv-x="2150" 
d="M1875 2351q125 0 125 -155q0 -151 -104 -427q2 -10 4 -19q0 -50 -171 -50q-279 50 -475 50q-157 0 -323 -50q-118 0 -174 66q-57 65 -57 127q0 157 143 282t408 125q159 0 376 -150q94 -66 159 -150q63 2 64 100q0 51 -101 101q0 150 125 150h1zM1005 1879q120 21 249 21
q195 0 446 -52q-23 73 -174 137.5t-273 64.5q-105 0 -176.5 -50.5t-71.5 -120.5zM750 488q0 -488 -269 -488q-280 0 -331 500v670q0 100 94.5 215t213.5 115q59 0 155.5 -75t186.5 -75q-20 -102 -75 -171t-130 -74t-126 35t-100 40q-49 -1 -84 -60.5t-35 -139.5v-292
q0 -112 50 -219t200 -92t150 134q0 40 -27 63.5t-53.5 -7t-102.5 -30.5q-142 0 -142 178q0 238 202 238q51 0 109 -37t86 -117t28 -311zM1985 860q2 -48 -57 -50q-58 -1 -60 48q0 48 57 49q60 1 60 -47zM1504 49q2 -49 -58 -49q-58 1 -59 46q0 49 57 50q59 1 60 -47z
M1180 553q1 -48 -57 -47q-57 -1 -59 46q-1 47 55 48q60 2 61 -47zM1194 932q2 -47 -56 -48q-59 0 -60 47t56 48q60 3 60 -47zM1330 188q1 -47 -58 -48q-58 -1 -59 47q-1 47 57 49q59 2 60 -48zM1614 1355q2 -48 -57 -49q-57 -1 -59 47q0 48 56 49q60 1 60 -47zM1932 1045
q0 -48 -57 -48q-60 -1 -60 46q-2 49 57 50q58 1 60 -48zM1229 366q2 -48 -56 -49q-58 0 -60 47q0 48 56 50q60 1 60 -48zM1172 742q0 -47 -58 -48t-59 47q-2 48 57 49q58 2 60 -48zM1809 1237q2 -47 -56 -48q-59 0 -60 47q0 47 56 49q60 2 60 -48zM2000 640v-2
q0 -45 -56 -46q-60 1 -61 47q-1 48 57 50q59 1 60 -49zM1759 91q1 -48 -56 -48q-59 -2 -59 47q-2 47 57 49q56 0 58 -48zM1972 438q1 -48 -57 -50q-58 0 -60 47q-1 48 57 50q59 1 60 -47zM1895 253q2 -48 -56 -47q-59 -1 -59 46q-2 49 56 50t59 -49zM1395 1288
q2 -47 -57 -49q-58 0 -59 48q0 47 57 49q58 1 59 -48zM1263 1119q2 -48 -56 -48q-57 -2 -59 45q-1 49 56 49q59 2 59 -46z" />
    <glyph glyph-name="uni17bf" unicode="&#x17bf;" horiz-adv-x="2800" 
d="M1976 847q0 -48 -59 -48q-58 1 -58 49t58 48q59 0 59 -49zM1926 1034q0 -48 -58 -47q-59 1 -59 48q0 48 58 48q59 0 59 -49zM1159 750q0 -48 -59 -47q-58 1 -58 48q0 48 58 48q59 0 59 -49zM1304 192q0 -48 -59 -47q-58 1 -58 48q0 48 58 48q59 0 59 -49zM1187 939
q0 -48 -58 -47q-59 2 -59 48q0 48 58 48q59 0 59 -49zM1985 628q0 -48 -58 -47q-59 2 -59 48q0 48 58 48q59 0 59 -49zM1952 426q0 -48 -58 -48q-59 1 -59 48q0 48 58 48q59 0 59 -48zM1475 48q0 -48 -59 -47q-58 2 -58 48q0 48 58 48q59 0 59 -49zM1871 243q0 -48 -58 -46
q-58 1 -58 48q0 48 58 48t58 -50zM1396 1290q0 -48 -58 -47t-58 48q0 48 58 48t58 -49zM1208 372q0 -48 -58 -47t-58 48q0 48 57 48q59 0 59 -49zM1809 1229q0 -48 -58 -47q-58 2 -58 48q0 48 57 48q59 0 59 -49zM1730 84q0 -48 -57 -47q-58 1 -58 49q0 47 58 47
q57 0 57 -49zM1163 560q0 -48 -58 -46q-58 1 -58 48t57 47q59 0 59 -49zM1260 1124q0 -48 -58 -47q-57 0 -57 47q0 48 57 48q58 0 58 -48zM1941 2309q109 0 245 -71q5 25 5 59q0 51 -101 91q0 112 126 112q124 0 125 -147q0 -100 -23 -195q93 -65 157 -149q64 2 65 100
q0 51 -101 101q0 151 126 150q125 0 125 -155q0 -141 -91 -389q51 -92 51 -296v-1920q-50 -150 -200 -225t-400 -75q-300 0 -450 88q-150 87 -150 262q0 150 75 225t225 75q125 0 188 -38q62 -37 62 -112t-44 -112q-44 -38 -131 -38q-75 0 -125 50q0 50 -50 50t-50 -50
q0 -75 112 -112q113 -38 338 -38t338 75q112 75 112 225v1641q0 92 -40 153q-33 51 -176.5 83t-339.5 32q-157 0 -323 -50q-118 0 -174 66q-57 65 -57 127q0 157 143 282t408 125zM1695 1888q120 21 249 21q195 0 446 -52q-23 73 -174 137.5t-273 64.5q-105 0 -176.5 -50.5
t-71.5 -120.5zM1617 1351q0 -48 -58 -47t-58 48q0 48 57 48q59 0 59 -49zM750 488q0 -488 -269 -488q-280 0 -331 500v670q0 100 94.5 215t213.5 115q59 0 155.5 -75t186.5 -75q-20 -102 -75 -171t-130 -74t-126 35t-100 40q-49 -1 -84 -60.5t-35 -139.5v-292
q0 -112 50 -219t200 -92t150 134q0 40 -27 63.5t-53.5 -7t-102.5 -30.5q-142 0 -142 178q0 238 202 238q51 0 109 -37t86 -117t28 -311z" />
    <glyph glyph-name="uni17c0" unicode="&#x17c0;" horiz-adv-x="2800" 
d="M1976 847q0 -48 -59 -48q-58 1 -58 49t58 48q59 0 59 -49zM1926 1034q0 -48 -58 -47q-59 1 -59 48q0 48 58 48q59 0 59 -49zM1159 750q0 -48 -59 -47q-58 1 -58 48q0 48 58 48q59 0 59 -49zM1304 192q0 -48 -59 -47q-58 1 -58 48q0 48 58 48q59 0 59 -49zM1187 939
q0 -48 -58 -47q-59 2 -59 48q0 48 58 48q59 0 59 -49zM1985 628q0 -48 -58 -47q-59 2 -59 48q0 48 58 48q59 0 59 -49zM1952 426q0 -48 -58 -48q-59 1 -59 48q0 48 58 48q59 0 59 -48zM1475 48q0 -48 -59 -47q-58 2 -58 48q0 48 58 48q59 0 59 -49zM1871 243q0 -48 -58 -46
q-58 1 -58 48q0 48 58 48t58 -50zM1396 1290q0 -48 -58 -47t-58 48q0 48 58 48t58 -49zM1208 372q0 -48 -58 -47t-58 48q0 48 57 48q59 0 59 -49zM1809 1229q0 -48 -58 -47q-58 2 -58 48q0 48 57 48q59 0 59 -49zM1730 84q0 -48 -57 -47q-58 1 -58 49q0 47 58 47
q57 0 57 -49zM1163 560q0 -48 -58 -46q-58 1 -58 48t57 47q59 0 59 -49zM1260 1124q0 -48 -58 -47q-57 0 -57 47q0 48 57 48q58 0 58 -48zM2650 1600v-2000q-50 -150 -200 -225t-400 -75q-300 0 -450 88q-150 87 -150 262q0 150 75 225t225 75q125 0 188 -38q62 -37 62 -112
t-44 -112q-44 -38 -131 -38q-75 0 -125 50q0 50 -50 50t-50 -50q0 -75 112 -112q113 -38 338 -38t338 75q112 75 112 225v1750q0 279 -466 279q-247 0 -323 -170q-118 0 -174 66q-87 65 -87 127v321q0 126 -100 167q0 110 190 110t190 -246v-296q175 182 430 182
q490 0 490 -540zM1617 1351q0 -48 -58 -47t-58 48q0 48 57 48q59 0 59 -49zM750 488q0 -488 -269 -488q-280 0 -331 500v670q0 100 94.5 215t213.5 115q59 0 155.5 -75t186.5 -75q-20 -102 -75 -171t-130 -74t-126 35t-100 40q-49 -1 -84 -60.5t-35 -139.5v-292
q0 -112 50 -219t200 -92t150 134q0 40 -27 63.5t-53.5 -7t-102.5 -30.5q-142 0 -142 178q0 238 202 238q51 0 109 -37t86 -117t28 -311z" />
    <glyph glyph-name="uni17c1" unicode="&#x17c1;" horiz-adv-x="900" 
d="M750 488q0 -488 -269 -488q-280 0 -331 500v670q0 100 94.5 215t213.5 115q59 0 155.5 -75t186.5 -75q-20 -102 -75 -171t-130 -74t-126 35t-100 40q-49 -1 -84 -60.5t-35 -139.5v-292q0 -112 50 -219t200 -92t150 134q0 40 -27 63.5t-53.5 -7t-102.5 -30.5
q-142 0 -142 178q0 238 202 238q51 0 109 -37t86 -117t28 -311z" />
    <glyph glyph-name="uni17c2" unicode="&#x17c2;" horiz-adv-x="900" 
d="M400 1750q-12 50 -64 50q-51 0 -51 -55q0 -45 90 -45q62 0 93 37.5t31 112.5t-45 112q-44 38 -154 38q0 75 42 112q43 38 128 38q140 0 210 -62q70 -63 70 -188q0 -150 -74 -225t-221 -75q-177 0 -266 42q-89 41 -89 124q0 82 38 123q37 41 112 41q100 0 138 -45
q37 -45 12 -135zM750 488q0 -488 -269 -488q-280 0 -331 500v670q0 100 94.5 215t213.5 115q59 0 155.5 -75t186.5 -75q-20 -102 -75 -171t-130 -74t-126 35t-100 40q-49 -1 -84 -60.5t-35 -139.5v-292q0 -112 50 -219t200 -92t150 134q0 40 -27 63.5t-53.5 -7t-102.5 -30.5
q-142 0 -142 178q0 238 202 238q51 0 109 -37t86 -117t28 -311z" />
    <glyph glyph-name="uni17c3" unicode="&#x17c3;" horiz-adv-x="900" 
d="M561 1601q-175 0 -263 31q-88 32 -88 94t62 93q63 31 188 31q0 -150 76 -149q75 0 75 150t-75 150q-76 0 -261 -73q-89 0 -152 146q-63 147 -173 87q1 239 151 239t175 -100q24 -99 24 -249q151 50 296 50q152 0 229 -63q76 -62 76 -187t-85 -187q-85 -63 -255 -63z
M750 488q0 -488 -269 -488q-280 0 -331 500v670q0 100 94.5 215t213.5 115q59 0 155.5 -75t186.5 -75q-20 -102 -75 -171t-130 -74t-126 35t-100 40q-49 -1 -84 -60.5t-35 -139.5v-292q0 -112 50 -219t200 -92t150 134q0 40 -27 63.5t-53.5 -7t-102.5 -30.5q-142 0 -142 178
q0 238 202 238q51 0 109 -37t86 -117t28 -311z" />
    <glyph glyph-name="uni17c4" unicode="&#x17c4;" horiz-adv-x="2950" 
d="M1976 847q0 -48 -59 -48q-58 1 -58 49t58 48q59 0 59 -49zM1926 1034q0 -48 -58 -47q-59 1 -59 48q0 48 58 48q59 0 59 -49zM1159 750q0 -48 -59 -47q-58 1 -58 48q0 48 58 48q59 0 59 -49zM1304 192q0 -48 -59 -47q-58 1 -58 48q0 48 58 48q59 0 59 -49zM1187 939
q0 -48 -58 -47q-59 2 -59 48q0 48 58 48q59 0 59 -49zM1985 628q0 -48 -58 -47q-59 2 -59 48q0 48 58 48q59 0 59 -49zM1952 426q0 -48 -58 -48q-59 1 -59 48q0 48 58 48q59 0 59 -48zM1475 48q0 -48 -59 -47q-58 2 -58 48q0 48 58 48q59 0 59 -49zM1871 243q0 -48 -58 -46
q-58 1 -58 48q0 48 58 48t58 -50zM1396 1290q0 -48 -58 -47t-58 48q0 48 58 48t58 -49zM1208 372q0 -48 -58 -47t-58 48q0 48 57 48q59 0 59 -49zM1809 1229q0 -48 -58 -47q-58 2 -58 48q0 48 57 48q59 0 59 -49zM1730 84q0 -48 -57 -47q-58 1 -58 49q0 47 58 47
q57 0 57 -49zM1163 560q0 -48 -58 -46q-58 1 -58 48t57 47q59 0 59 -49zM1260 1124q0 -48 -58 -47q-57 0 -57 47q0 48 57 48q58 0 58 -48zM1617 1351q0 -48 -58 -47t-58 48q0 48 57 48q59 0 59 -49zM750 488q0 -488 -269 -488q-280 0 -331 500v670q0 100 94.5 215t213.5 115
q59 0 155.5 -75t186.5 -75q-20 -102 -75 -171t-130 -74t-126 35t-100 40q-49 -1 -84 -60.5t-35 -139.5v-292q0 -112 50 -219t200 -92t150 134q0 40 -27 63.5t-53.5 -7t-102.5 -30.5q-142 0 -142 178q0 238 202 238q51 0 109 -37t86 -117t28 -311zM2668.5 406q31.5 0 31.5 44
v117q-59 -55 -81.5 -74t-2 -53t52 -34zM2043.5 1343q126.5 157 231.5 157q165 0 345 -123t180 -227v-950q0 -60 -60 -130t-140 -70q-161 0 -280 154q-120 153 -120 266q0 71 250 140t250 233q0 131 -182.5 239t-325.5 108q-114 0 -295 -145q20 191 146.5 348z" />
    <glyph glyph-name="uni17c5" unicode="&#x17c5;" horiz-adv-x="2950" 
d="M1159 750q0 -48 -59 -47q-58 1 -58 48q0 48 58 48q59 0 59 -49zM1304 192q0 -48 -59 -47q-58 1 -58 48q0 48 58 48q59 0 59 -49zM1187 939q0 -48 -58 -47q-59 2 -59 48q0 48 58 48q59 0 59 -49zM1475 48q0 -48 -59 -47q-58 2 -58 48q0 48 58 48q59 0 59 -49zM1396 1290
q0 -48 -58 -47t-58 48q0 48 58 48t58 -49zM1208 372q0 -48 -58 -47t-58 48q0 48 57 48q59 0 59 -49zM1163 560q0 -48 -58 -46q-58 1 -58 48t57 47q59 0 59 -49zM1260 1124q0 -48 -58 -47q-57 0 -57 47q0 48 57 48q58 0 58 -48zM750 488q0 -488 -269 -488q-280 0 -331 500
v670q0 100 94.5 215t213.5 115q59 0 155.5 -75t186.5 -75q-20 -102 -75 -171t-130 -74t-126 35t-100 40q-49 -1 -84 -60.5t-35 -139.5v-292q0 -112 50 -219t200 -92t150 134q0 40 -27 63.5t-53.5 -7t-102.5 -30.5q-142 0 -142 178q0 238 202 238q51 0 109 -37t86 -117
t28 -311zM2700 450v117q-59 -55 -81.5 -74t-2 -53t52 -34t31.5 44zM2681 1331q119 -97 119 -181v-950q0 -60 -60 -130t-140 -70q-161 0 -280 154q-120 153 -120 266q0 71 250 140t250 233q0 131 -182.5 239t-325.5 108q-114 0 -295 -145q20 191 146.5 348t231.5 157
q147 0 305 -97q19 220 19 253q1 45 -49 45t-100 -60v5q0 196 71 274q72 80 176 80q103 0 153 -69q50 -70 50 -170q-1 -101 -101 -222q-69 -83 -118 -208zM1976 847q0 -48 -59 -48q-58 1 -58 49t58 48q59 0 59 -49zM1926 1034q0 -48 -58 -47q-59 1 -59 48q0 48 58 48
q59 0 59 -49zM1985 628q0 -48 -58 -47q-59 2 -59 48q0 48 58 48q59 0 59 -49zM1952 426q0 -48 -58 -48q-59 1 -59 48q0 48 58 48q59 0 59 -48zM1871 243q0 -48 -58 -46q-58 1 -58 48q0 48 58 48t58 -50zM1809 1229q0 -48 -58 -47q-58 2 -58 48q0 48 57 48q59 0 59 -49z
M1730 84q0 -48 -57 -47q-58 1 -58 49q0 47 58 47q57 0 57 -49zM1617 1351q0 -48 -58 -47t-58 48q0 48 57 48q59 0 59 -49z" />
    <glyph glyph-name="uni17c6" unicode="&#x17c6;" 
d="M-899 1809q40 0 60 47q21 48 21 142q0 96 -21 143q-20 48 -60 48q-41 0 -61 -48q-21 -47 -21 -143q0 -94 21 -142q20 -47 61 -47zM-900 1700q-176 0 -263 75q-87 74 -87 225q0 149 87 224t263 75t263 -75t87 -224q0 -151 -87 -225q-87 -75 -263 -75z" />
    <glyph glyph-name="uni17c7" unicode="&#x17c7;" horiz-adv-x="950" 
d="M476 951q37 0 56 43q19 44 19 131q0 88 -19 131q-19 44 -56 44q-38 0 -57 -44q-19 -43 -19 -131q0 -87 19 -131q19 -43 57 -43zM475 851q-163 0 -244 69q-81 68 -81 206q0 137 81 206t244 69t244 -69t81 -206q0 -138 -81 -206q-81 -69 -244 -69zM476 101q37 0 56 43
q19 44 19 131q0 88 -19 131q-19 44 -56 44q-38 0 -57 -44q-19 -43 -19 -131q0 -87 19 -131q19 -43 57 -43zM475 1q-163 0 -244 69q-81 68 -81 206q0 137 81 206t244 69t244 -69t81 -206q0 -138 -81 -206q-81 -69 -244 -69z" />
    <glyph glyph-name="uni17c8" unicode="&#x17c8;" horiz-adv-x="750" 
d="M375 0q-112 0 -168 44t-56 131t44 131q43 44 131 44q87 0 130 -49q44 -49 44 -147q0 -50 50 -50t100 60q-25 -82 -96 -123q-72 -41 -179 -41zM375 900q-112 0 -168 44t-56 131t44 131q43 44 131 44q87 0 130 -49q44 -49 44 -147q0 -50 50 -50t100 60q-25 -82 -96 -123
q-72 -41 -179 -41z" />
    <glyph glyph-name="uni17c9" unicode="&#x17c9;" 
d="M-640 2098q-41 0 -60 -40q-1 174 57.5 236t144.5 62t127 -57q42 -58 42 -141q-1 -104 -74.5 -234.5t-196.5 -223.5q22 253 22 330q0 68 -62 68zM-1160 2098q-41 0 -60 -40v6q0 169 58 230q58 62 144 62t127 -57q42 -58 42 -141q-1 -104 -74.5 -234.5t-196.5 -223.5
q22 253 22 330q0 68 -62 68z" />
    <glyph glyph-name="uni17ca" unicode="&#x17ca;" 
d="M-1700 1540v206q315 240 404 240q88 0 226 -90q137 -90 184 -90t155 90t172 90q63 0 202 -75t257 -75q-108 -250 -235 -250q-107 0 -245 60q-139 60 -179 60q-41 0 -138 -83q-98 -83 -161 -83q-64 0 -200 89t-175 89q-40 0 -110 -38q104 -8 200 -92q-219 10 -357 -48z
" />
    <glyph glyph-name="uni17cb" unicode="&#x17cb;" 
d="M-1032 2108q-42 0 -68 -51v6q0 174 61 237t150 63q88 0 130 -59q43 -59 43 -145q-1 -86 -27 -185q-26 -98 -85 -186t-144 -88q50 178 26 293q-26 115 -86 115z" />
    <glyph glyph-name="uni17cc" unicode="&#x17cc;" 
d="M-1193 1600q-100 0 -134 35q-23 24 -23 49q0 53 110 111l160 83q136 75 203 178.5t100.5 223.5t176.5 120q124 0 124 -129q0 -95 -53 -172t-178 -166q93 -5 241.5 -14.5t251.5 -115.5q33 -45 33 -90q0 -69 -63 -96q-36 -17 -100 -17q-65 0 -115 65q-75 97 -241 109
q-120 13 -173.5 -11.5t-137 -93.5t-182.5 -69z" />
    <glyph glyph-name="uni17cd" unicode="&#x17cd;" 
d="M-749 1919q0 -80 24 -120q23 -40 71 -40q54 0 54 51q-1 35 -51 35q0 64 31 96q32 32 95 32q62 0 94 -31q31 -30 31 -91q0 -100 -64 -151q-63 -50 -190 -50q-173 0 -259 67q-87 67 -87 202q0 140 58 210q57 71 173 71q115 0 173 -23t115 -23q58 0 58 34q0 53 -58 53
q0 55 29 82t87 27q57 0 86 -31q29 -30 29 -91q0 -101 -58 -151q-57 -51 -173 -51h-173q-48 0 -71 -26q-24 -27 -24 -81z" />
    <glyph glyph-name="uni17ce" unicode="&#x17ce;" 
d="M-795 1800h-150v201h150v149h200v-149h150v-201h-150v-149h-200v149z" />
    <glyph glyph-name="uni17cf" unicode="&#x17cf;" 
d="M-500 1640q-85 0 -129 61q-44 -61 -151 -61q-110 0 -165 50t-55 150q0 140 80 200t220 60q100 0 150 -50q50 0 50 100q0 75 36 112q35 38 106 38q163 0 176 -70q-68 20 -68 -80q0 -90 -60 -145t-240 -55q-50 40 -110 40q-45 0 -68 -38q-22 -37 -22 -112q0 -90 50 -90
q27 0 68 65q67 -65 96 -65q33 0 33 21q0 39 -47 39q0 40 25 60t75 20q75 0 112 -30q38 -30 38 -89q0 -65 -50 -98t-150 -33z" />
    <glyph glyph-name="uni17d0" unicode="&#x17d0;" 
d="M-800 1950q0 125 50 188q50 62 150 62q75 0 112 -30q38 -30 38 -90q0 -65 -42 -98q-43 -32 -128 -32q0 50 -40.5 50t-40.5 -30q0 -35 75 -52q76 -18 226 -18t225 32q75 33 75 98q0 60 -50 100t-100 -10q-50 15 -50 70q0 80 32 120q33 40 98 40q70 0 120 -50t50 -150
q0 -250 -100 -375t-300 -125t-300 75t-100 225z" />
    <glyph glyph-name="uni17d1" unicode="&#x17d1;" 
d="M-151 1900v-250h-1499v250h1499z" />
    <glyph glyph-name="uni17d2" unicode="&#x17d2;" 
d="M-450 -500h-150v-150h-200v150h-150v200h150v150h200v-150h150v-200z" />
    <glyph glyph-name="uni17d3" unicode="&#x17d3;" 
d="M-1169 1925q0 -69 67 -103q68 -34 203 -34t203 34q67 34 67 103t-67 103q-68 34 -203 34t-203 -34q-67 -34 -67 -103zM-449 1925q0 -137 -113 -206q-112 -69 -337 -69t-337 69q-113 69 -113 206t113 206q112 69 337 69t337 -69q113 -69 113 -206z" />
    <glyph glyph-name="uni17d4" unicode="&#x17d4;" horiz-adv-x="1550" 
d="M150 1187q0 157 88 235q87 78 262 78q150 0 225 -54q75 -55 75 -164q0 -92 -36 -137q-36 -46 -107 -46q-79 0 -118 38q-39 37 -39 113q0 62 64 125q-67 0 -100 -47q-34 -47 -34 -141q0 -119 55 -178t165 -59q150 0 276 97q124 97 224 291q0 62 -50 62q0 100 175 100
q125 0 125 -63v-1249q0 -94 -50 -141t-150 -47q-87 0 -130 47q-44 47 -44 141q124 0 124 124v693q-94 -103 -218 -154q-126 -51 -282 -51q-250 0 -375 97t-125 290z" />
    <glyph glyph-name="uni17d5" unicode="&#x17d5;" horiz-adv-x="2050" 
d="M150 1187q0 157 88 235q87 78 262 78q150 0 225 -54q75 -55 75 -164q0 -92 -36 -137q-36 -46 -107 -46q-79 0 -118 38q-39 37 -39 113q0 62 64 125q-67 0 -100 -47q-34 -47 -34 -141q0 -119 55 -178t165 -59q150 0 276 97q124 97 224 291q0 62 -50 62q0 100 175 100
q125 0 125 -63v-1249q0 -94 -50 -141t-150 -47q-87 0 -130 47q-44 47 -44 141q124 0 124 124v693q-94 -103 -218 -154q-126 -51 -282 -51q-250 0 -375 97t-125 290zM1650 1338q0 62 -50 62q0 100 175 100q125 0 125 -63v-1249q0 -188 -200 -188q-174 0 -174 188
q124 0 124 124v1026z" />
    <glyph glyph-name="uni17d6" unicode="&#x17d6;" horiz-adv-x="950" 
d="M100 850v-200h750v200h-750zM476 1101q37 0 56 43q19 44 19 106q0 63 -19 106q-19 44 -56 44q-38 0 -57 -44q-19 -43 -19 -106q0 -62 19 -106q19 -43 57 -43zM475 1001q-163 0 -244 69q-81 68 -81 180q0 113 81 182t244 69t244 -69t81 -182q0 -112 -81 -180
q-81 -69 -244 -69zM476 101q37 0 56 43q19 44 19 106q0 63 -19 106q-19 44 -56 44q-38 0 -57 -44q-19 -43 -19 -106q0 -62 19 -106q19 -43 57 -43zM475 1q-163 0 -244 69q-81 68 -81 180q0 113 81 182t244 69t244 -69t81 -182q0 -112 -81 -180q-81 -69 -244 -69z" />
    <glyph glyph-name="uni17d7" unicode="&#x17d7;" horiz-adv-x="1800" 
d="M1400 950q0 33 -82 102t-224 69q-141 0 -291 -178q-213 176 -309 176q-155 0 -155 -129v-45q0 -45 60 -45q62 0 74 20q16 31 -34 31q-1 69 85 69q176 0 176 -171q0 -149 -249 -149q-143 0 -222 98t-79 253q0 219 134.5 334t221.5 115t183.5 -51t210.5 -196
q78 146 164.5 196.5t153.5 50.5q66 0 249 -116.5t183 -230.5v-1153q0 -300 -188 -450q-187 -150 -502 -150q-335 0 -522 92q-188 93 -188 278q0 115 88 172q87 58 262 58q0 -200 100 -300t260 -100q190 0 314 100q126 100 126 300v950z" />
    <glyph glyph-name="uni17d8" unicode="&#x17d8;" horiz-adv-x="5430" 
d="M150 1187q0 157 88 235q87 78 262 78q150 0 225 -54q75 -55 75 -164q0 -92 -36 -137q-36 -46 -107 -46q-79 0 -118 38q-39 37 -39 113q0 62 64 125q-67 0 -100 -47q-34 -47 -34 -141q0 -119 55 -178t165 -59q150 0 276 97q124 97 224 291q0 62 -50 62q0 100 175 100
q125 0 125 -63v-1249q0 -94 -50 -141t-150 -47q-87 0 -130 47q-44 47 -44 141q124 0 124 124v693q-94 -103 -218 -154q-126 -51 -282 -51q-250 0 -375 97t-125 290zM1975 1137q-84 -54 -157 -116q155 39 268.5 -28t113.5 -275q0 -118 -134 -222q-171 -134 -130 -166.5t79 34
t92 66.5q143 0 143 -160q0 -270 -275 -270t-275 280q0 90 52 177q52 86 248 159q-16 112 -126.5 112t-173.5 -58v446q70 144 201.5 264t370.5 120t402 -109t216 -216l53 -108l-272 -464q53 -144 160.5 -213.5t298.5 -69.5q205 0 327.5 60t122.5 200q0 55 -122.5 102.5
t-397.5 -32.5v574q0 76 129 176t165 100t159.5 -68t214.5 -68q-79 -273 -163.5 -273.5t-155.5 34.5t-144.5 15t-103.5 -140q255 80 412 -35t157 -364q0 -260 -190 -430.5t-550 -170.5q-230 0 -405 103.5t-258 309.5l321 464q-81 146 -195 230q-114 83 -254 83
q-141 0 -224 -53zM4030 1187q0 157 88 235q87 78 262 78q150 0 225 -54q75 -55 75 -164q0 -92 -36 -137q-36 -46 -107 -46q-79 0 -118 38q-39 37 -39 113q0 62 64 125q-67 0 -100 -47q-34 -47 -34 -141q0 -119 55 -178t165 -59q150 0 276 97q124 97 224 291q0 62 -50 62
q0 100 175 100q125 0 125 -63v-1249q0 -94 -50 -141t-150 -47q-87 0 -130 47q-44 47 -44 141q124 0 124 124v693q-94 -103 -218 -154q-126 -51 -282 -51q-250 0 -375 97t-125 290z" />
    <glyph glyph-name="uni17d9" unicode="&#x17d9;" horiz-adv-x="2100" 
d="M950 0q-349 0 -525 175q-175 175 -175 525t175 525q176 175 525 175t525 -175q175 -175 175 -525t-175 -525q-176 -175 -525 -175zM950 1250q-550 0 -550 -550t550 -550t550 550t-550 550zM950 300q-201 0 -300 100q-100 100 -100 300t100 300q99 100 300 100t300 -100
q100 -100 100 -300t-100 -300q-99 -100 -300 -100zM950 950q-124 0 -187 -62q-63 -63 -63 -188t63 -187q63 -63 187 -63t187 63q63 62 63 187t-63 188q-63 62 -187 62z" />
    <glyph glyph-name="uni17da" unicode="&#x17da;" horiz-adv-x="3850" 
d="M3121 538q15 -29 10 -33q-15 -13 -25 2q-6 9 15 31zM1793 979q-7 9 -12 18q-59 91 -35 123q48 64 101 11q27 -27 -54 -152zM2071 439q59 -82 38 -99q-43 -34 -78 7q-16 20 40 92zM2411 1018q-43 71 -25 84q37 27 63 -8q11 -15 -38 -76zM2638 468q18 -30 12 -34
q-19 -12 -32 3q-5 5 20 31zM2982 979q-12 23 -6 28q18 16 30 4q4 -4 -24 -32zM3114 794q-26 33 -47 60q29 35 48 66q64 106 11 173q-54 67 -114 75q-60 9 -126 -41q-67 -50 -37 -153q11 -38 34 -83q-51 -44 -125 -104q-59 -49 -105 -94q-35 50 -79 105q-46 57 -81 103
q34 49 56 91q68 132 11 205t-124 81q-66 8 -143 -50t-33 -190q22 -66 54 -125q-57 -59 -138 -135q-62 -61 -111 -116q-39 46 -86 96q-53 56 -95 105q36 61 59 114q75 175 1 259t-147 83q-74 -1 -148 -86t-17 -228q26 -65 80 -142q-77 -105 -197 -249q-193 -232 -355 -348
t-294 -116q-133 0 -199 150t-66 450q-1 300 81 450q81 150 243 150t244 -64q81 -63 81 -189q0 -141 -59 -227t-176 -116q-85 -23 -65 -96q20 -72 104 -48q173 44 260 168q86 123 86 326q0 198 -118 297q-119 99 -357 99q-237 0 -356 -188q-119 -187 -119 -562t104 -563
q104 -187 311 -187q167 0 363 134q195 133 418 400q93 112 160 208q34 -39 73 -80q56 -60 99 -108q-36 -51 -58 -96q-64 -130 -1 -204t134 -80t150 54t23 192q-23 54 -67 119q54 56 129 128q63 63 112 119l69 -86q50 -64 86 -113q-24 -31 -41 -59q-64 -110 -12 -177t113 -76
q60 -9 128 42t26 171q-12 33 -32 71q55 46 133 110q56 45 102 87q15 -21 33 -43q17 -24 32 -46q-74 -60 -89 -120q-15 -64 36 -128t110 -71q58 -8 124 42t40 151q-9 35 -29 76q66 33 152 33h120q99 0 99 75t-95 75q-147 0 -262 -32q-46 -12 -87 -30q-19 27 -42 56z" />
    <glyph glyph-name="uni17db" unicode="&#x17db;" horiz-adv-x="900" 
d="M750 537v-397q-120 -140 -200 -140q-161 0 -280 154q-120 153 -120 296q137 13 296 88q38 72 42 159q-117 17 -338 -47v574q0 76 129 176t165 100t149.5 -68t206.5 -68q-81 -273 -165.5 -273.5t-155.5 34.5t-134.5 15t-93.5 -140q174 55 312 3t187 -153v-152
q69 10 150 34q-30 -127 -137 -188q-6 -3 -13 -7zM650 510q-31 -4 -67 -5q-9 -7 -14 -12q-23 -19 -2.5 -53t52 -34t31.5 44v60z" />
    <glyph glyph-name="uni17dc" unicode="&#x17dc;" horiz-adv-x="1550" 
d="M420 1022q0 -132 89 -198q88 -66 266 -66q237 0 356 -94q119 -95 119 -285q0 -189 -119 -284t-356 -95t-356 73t-119 220q0 87 45 131q45 43 134 44q30 0 45 -15t15 -45q0 -29 -15 -43q-15 -15 -45 -15q-29 0 -44 -15q-15 -14 -15 -43q0 -87 89 -131q88 -43 266 -43
t267 65q89 66 89 197q0 132 -89 197q-89 66 -267 66q-237 0 -356 95q-118 94 -119 284q0 189 119 284q119 94 356 94t356 -73q119 -72 119 -217q0 -88 -45 -132q-44 -44 -133 -44q-30 0 -45 15t-15 44t15 44q15 14 45 14t44 15q15 14 15 44q0 87 -89 131q-89 43 -267 43
t-266 -65q-89 -66 -89 -197z" />
    <glyph glyph-name="uni17dd" unicode="&#x17dd;" 
d="M-300 1600h-88h-87q0 75 -75 112q-75 38 -225 38q-151 0 -226 -38q-76 -37 -76 -112h-86h-87q0 125 119 188q119 62 356 62t356 -62q119 -63 119 -188z" />
    <glyph glyph-name="uni17e0" unicode="&#x17e0;" horiz-adv-x="1600" 
d="M150 750q0 375 162 562q163 188 488 188t488 -188q162 -187 162 -562t-162 -562q-163 -188 -488 -188t-488 188q-162 187 -162 562zM495 750q0 -300 77 -450t230 -150q154 0 231 150t77 450t-77 450t-231 150q-153 0 -230 -150t-77 -450z" />
    <glyph glyph-name="uni17e1" unicode="&#x17e1;" horiz-adv-x="1600" 
d="M153 91q216 309 509 234q231 -54 340 75q108 130 108 350q0 300 -77 450t-281 150q-136 0 -212 -60q-76 -61 -84 -122l-7 -60q-15 -121 32 -174q47 -52 155 -36q65 13 33 90q124 11 184 -39q60 -51 57 -163t-67 -173q-63 -61 -186 -70q-254 -10 -381 83q-126 93 -126 289
q0 293 150 439t450 146q375 0 538 -188q162 -187 162 -562t-162 -562q-163 -188 -398 -188q-245 0 -373 66t-364 25z" />
    <glyph glyph-name="uni17e2" unicode="&#x17e2;" horiz-adv-x="2100" 
d="M1801 816q1 127 -58 176l-118 100q-59 49 -181 49q-141 0 -281 -198q-273 196 -359 196q-115 0 -115 -129q0 -110 60 -110q62 0 74 20q16 31 -34 31q-1 69 85 69q126 0 126 -171q0 -149 -199 -149q-143 0 -222 98t-79 253q50 249 308 449q294 -68 442 -247
q117 197 251 247q113 -19 281 -127.5t168 -219.5v-652q0 -175 -150 -338t-300 -163q-230 0 -332 76l-101 75q-97 -151 -322 -151q-245 0 -420 138q-175 137 -175 482q0 280 25 480t25 501q0 200 -100 349h112q289 0 289 -254q-1 -346 -101 -596q-101 -250 -99 -429
q-1 -71 83.5 -172.5t209.5 -126.5t254.5 -25t222.5 117l35 48l47 -52q47 -52 117 -82q70 -31 232 -31q143 0 220 61q78 62 78 282z" />
    <glyph glyph-name="uni17e3" unicode="&#x17e3;" horiz-adv-x="1850" 
d="M1250 500q160 -35 230 22.5t70 172.5v175q-1 41 -133 136q-131 95 -263 95q-104 0 -104 -151v-850q0 -100 -100 -100t-100 100v800q0 50 -105 124.5t-251 74.5q-95 1 -144 -99q-50 -100 -50 -250q0 -298 51 -298q49 0 49 98q250 0 250 -255q0 -295 -200 -295
q-299 0 -300 500v350q0 250 179 450l179 200q294 -68 442 -247q117 197 251 247q133 -19 316 -127.5t183 -219.5v-805q0 -148 -49.5 -229t-150.5 -119q-250 0 -250 500z" />
    <glyph glyph-name="uni17e4" unicode="&#x17e4;" horiz-adv-x="1600" 
d="M150 410v188q0 148 187 340t612 437q151 97 151 176t-75 104l-75 25q0 135 62 202q63 68 168 68q125 0 198 -62q72 -63 72 -188q0 -112 -119 -216t-213 -162l-226 -144q-199 -129 -298 -273q-99 -145 -99 -305v-190q0 -110 52 -185t155 -75q57 0 136 25q78 25 132 25
q53 0 117 -25q63 -25 108 -25q1 90 -71 126l-81 44q-243 120 -243 340q0 170 75 255t275 85q120 0 210 -61t90 -184q0 -101 -65 -155q-65 -53 -185 -60q1 111 -104 111q-96 -1 -95 -61q0 -50 149 -140l100 -60q200 -120 200 -290q0 -100 -100 -100q-148 0 -232 25t-139 25
t-124 -25q-70 -25 -155 -25q-275 0 -412.5 112.5t-137.5 297.5z" />
    <glyph glyph-name="uni17e5" unicode="&#x17e5;" horiz-adv-x="1600" 
d="M150 410v188q0 148 187 340l187 192l17 17q-240 48 -241 268q0 143 75 214t225 71t225 -67t75 -202q0 -84 -28 -167q105 -14 178 -14q150 0 150 65t-100 175q-101 110 -101 222q0 113 69 176q73 62 178 62q127 0 190 -50q64 -50 64 -150q-92 0 -126 -50q-33 -50 -8 -149
q34 -151 34 -251t-86 -150q-87 -50 -261 -50q-128 0 -256 12q-42 -63 -101 -125q-201 -227 -201 -387v-190q0 -110 52 -185t155 -75q57 0 136 25q78 25 132 25q53 0 117 -25q63 -25 108 -25q1 90 -71 116l-81 34q-243 80 -243 300q0 170 75 255t275 85q120 0 210 -61
t90 -184q0 -101 -65 -155q-65 -53 -185 -60q1 111 -104 111q-96 -1 -95 -61q0 -50 149 -130l100 -50q200 -80 200 -250q0 -100 -100 -100q-148 0 -232 25t-139 25t-124 -25q-70 -25 -155 -25q-275 0 -412.5 112.5t-137.5 297.5zM700 1430q0 90 -102 90q-98 1 -98 -105
q0 -75 115 -103q23 -5 45 -10q40 71 40 128z" />
    <glyph glyph-name="uni17e6" unicode="&#x17e6;" horiz-adv-x="1600" 
d="M860 1500q265 0 428 -188q162 -187 162 -562t-162 -562q-163 -188 -538 -188q-300 0 -450 146t-150 379q0 196 126 319q127 123 381 113q123 -9 186 -70q64 -61 67 -173t-57 -163q-60 -50 -184 -39q32 77 -33 90q-108 16 -155 -36q-47 -53 -32 -174l7 -60q8 -61 84 -122
q76 -60 212 -60q154 0 256 185t102 415q0 310 -178 420q-179 109 -597 -45q-186 -35 -185 75q1 100 51 250q50 151 50 236t-151 114q25 75 83 113q57 37 147 37q135 0 203 -57q67 -57 67 -172q0 -130 -125 -266l-125 -137q62 0 208.5 91t301.5 91z" />
    <glyph glyph-name="uni17e7" unicode="&#x17e7;" horiz-adv-x="1850" 
d="M1000 390q0 155 150 282.5t150 197.5q-1 41 -133 136q-131 95 -173 95q-104 0 -254 -111q-100 109 -246 109q-95 1 -144 -99q-50 -100 -50 -250q0 -298 81 -298q69 0 69 98q250 0 250 -255q0 -295 -200 -295q-349 0 -350 600v250q0 250 179 450l179 200q184 -68 332 -187
q67 137 201 187q83 0 165 -59l162 -118q82 -59 82 -230v-215q0 -138 -100 -258t-100 -220q0 -50 150 -50t150 150v788q0 187 -118 301q-117 113 -232 61q0 300 200 300q100 0 200 -90t100 -220v-1430q0 -210 -300 -210q-400 0 -400 390z" />
    <glyph glyph-name="uni17e8" unicode="&#x17e8;" horiz-adv-x="1600" 
d="M1250 1318l-125 137q-125 136 -125 266q0 115 67 172q68 57 203 57q90 0 147 -37q58 -38 83 -113q-151 -29 -151 -114t50 -236l50 -150q-48 -199 -246 -197t-377 49t-347.5 -67.5t-168.5 -334.5q0 -230 282 -365q102 -47 204 34t124 81q21 0 118 -95q96 -95 152 -95
t56 101.5t-87 174t-360 13.5q-69 289 116 345t360 -34q175 -89 175 -315q0 -303 -125 -449t-213 -146q-87 0 -322 200q-178 -200 -246 -200q-69 0 -232 152q-162 153 -162 598q0 375 162 562q163 188 428 188q155 0 301.5 -91t208.5 -91z" />
    <glyph glyph-name="uni17e9" unicode="&#x17e9;" horiz-adv-x="1600" 
d="M1280 1420q0 75 -158 178q-157 104 -272 52q50 300 230 300q120 0 245 -100t125 -350q0 -150 -44 -214q-45 -65 -128 -103t-222 -22l-140 16q-240 27 -264 -131q47 4 98 4q311 0 506 -125q194 -124 194 -224q0 -101 -30 -100q-65 99 -195 149t-325 50q-200 0 -300 -60
t-100 -180q0 -150 142 -276t257 -126q115 1 156 42q41 40 41 82q0 41 -62 74q-62 32 -235 -27q-69 289 116 345t340 -34q145 -89 145 -245q0 -173 -125 -284t-423 -111q-377 0 -540 152q-162 153 -162 408q0 245 150 368q71 58 175 88q-143 160 -83 306q73 178 238 178
t362 -60q196 -60 242 -60t46 40z" />
    <glyph glyph-name="uni17f0" unicode="&#x17f0;" horiz-adv-x="800" 
d="M550 350q0 250 -150 250t-150 -250t150 -250t150 250zM150 350q0 350 250 350t250 -350t-250 -350t-250 350z" />
    <glyph glyph-name="uni17f1" unicode="&#x17f1;" horiz-adv-x="800" 
d="M459 700l242 -700h-105l-196 565l-195 -565h-104l239 700h119z" />
    <glyph glyph-name="uni17f2" unicode="&#x17f2;" horiz-adv-x="300" 
d="M200 700v-700h-100v700h100z" />
    <glyph glyph-name="uni17f3" unicode="&#x17f3;" horiz-adv-x="1296" 
d="M458 700l189 -549l188 549h119l242 -700h-105l-196 565l-195 -565h-105l-196 565l-195 -565h-104l239 700h119z" />
    <glyph glyph-name="uni17f4" unicode="&#x17f4;" horiz-adv-x="800" 
d="M342 0l-242 700h105l196 -565l195 565h104l-239 -700h-119z" />
    <glyph glyph-name="uni17f5" unicode="&#x17f5;" horiz-adv-x="800" 
d="M201 201q0 127 125 273l-226 226h151l149 -149l150 150h151l-227 -227q127 -146 127 -273q0 -200 -200 -200t-200 200zM500 200q1 82 -100 197q-99 -115 -99 -196q0 -101 100 -100q100 0 99 99z" />
    <glyph glyph-name="uni17f6" unicode="&#x17f6;" horiz-adv-x="550" 
d="M209 700l241 -700h-106l-244 700h109z" />
    <glyph glyph-name="uni17f7" unicode="&#x17f7;" horiz-adv-x="1050" 
d="M458 700l189 -549l188 549h115l-250 -700h-105l-196 565l-195 -565h-104l239 700h119z" />
    <glyph glyph-name="uni17f8" unicode="&#x17f8;" horiz-adv-x="800" 
d="M449 700l-245 -700h-104l239 700h110z" />
    <glyph glyph-name="uni17f9" unicode="&#x17f9;" horiz-adv-x="900" 
d="M100 112l584 456l34 -99l-471 -369l303 1q301 0 301 -225q-1 -226 -301 -227l-50 1v100l51 -1q200 0 200 126q0 125 -200 125h-302h-110z" />
    <glyph glyph-name="uni200c" unicode="&#x200c;" 
 />
    <glyph glyph-name="uni25cc" unicode="&#x25cc;" horiz-adv-x="1443" 
d="M1192 889q1 -6 1 -14q-3 -48 -61 -45q-58 4 -56 52q3 47 61 45q50 -3 55 -38zM651 103q-3 -44 -52 -44h-9q-59 5 -56 51q3 48 61 45t56 -52zM366 630q-2 -48 -60 -43q-49 4 -55 39q-1 6 -1 12q3 47 60 45q59 -4 56 -53zM410 1008q-2 -48 -61 -44q-58 5 -55 51q2 48 59 45
q60 -3 57 -52zM488 256q-3 -48 -62 -44q-57 4 -55 51q3 48 60 45q59 -3 57 -52zM861 1397q-3 -48 -60 -44q-58 4 -56 51q2 38 39 44q10 1 21 1q58 -3 56 -52zM1153 1064q-3 -48 -60 -44q-60 5 -57 52q2 48 61 45q59 -4 56 -53zM401 440q-3 -48 -60 -43q-49 3 -55 37
q-1 6 -1 13q3 48 60 45q59 -2 56 -52zM372 821q-2 -48 -61 -44q-58 3 -55 50q2 48 60 46q58 -3 56 -52zM1046 1264q-3 -48 -60 -42q-58 5 -56 50q3 47 60 45q59 -3 56 -53zM1191 656q-3 -48 -61 -44q-58 5 -57 50q3 48 61 45q59 -2 57 -51zM907 126q-2 -38 -36 -43
q-10 -2 -23 -1q-58 4 -55 52q2 47 60 44q57 -3 54 -52zM1147 455q-3 -48 -60 -45q-59 5 -57 52q3 48 61 44q58 -3 56 -51zM1056 277q-2 -48 -60 -43q-58 4 -55 51q2 48 61 45q58 -3 54 -53zM637 1348q-3 -48 -60 -44q-58 4 -56 51q3 48 61 45q57 -4 55 -52zM493 1189
q-3 -48 -61 -44q-57 3 -54 50q2 48 59 45q58 -3 56 -51z" />
    <glyph glyph-name="unif152" horiz-adv-x="650" 
d="M-245 1349q0 47 55 86q92 65 183 65q109 0 188 -71l116 -101q103 -90 103 -200v-1028q0 -100 -150 -100v1128q0 44 -56 92l-96 85q-63 55 -145 55q-77 0 -175 -74q-23 33 -23 63z" />
    <glyph glyph-name="unif153" horiz-adv-x="650" 
d="M390 1195q10 -32 10 -67v-1028q0 -100 -150 -100v1128q0 44 -56 92l-96 85q-63 55 -145 55q-77 0 -175 -74q-23 33 -23 63q0 47 55 86q92 65 183 65q109 0 188 -71l116 -101q2 -1 3 -3v375q0 100 -100 100q0 100 125 100t125 -200v-300q0 -93 -60 -205z" />
    <glyph glyph-name="unif155" 
d="M-275 2351q125 0 125 -155q0 -151 -104 -427q2 -10 4 -19q0 -50 -171 -50q-279 50 -475 50q-157 0 -323 -50q-118 0 -174 66q-57 65 -57 127q0 157 143 282t408 125q159 0 376 -150q94 -66 159 -150q63 2 64 100q0 51 -101 101q0 150 125 150h1zM-1145 1879
q120 21 249 21q195 0 446 -52q-23 73 -174 137.5t-273 64.5q-105 0 -176.5 -50.5t-71.5 -120.5z" />
    <glyph glyph-name="uni1780.sub" 
d="M-514 -431q16 -25 55 -30v65zM-1100 -226q110 176 323 176q1 0 2 -1q170 0 298 -49t128 -115v-259q0 -98 -37 -154q-36 -57 -109 -74q-51 0 -135.5 65.5t-78.5 130t60 97.5l162 76q-41 20 -118 37q-76 16 -205 16q-220 0 -290 -100v-74q0 -123 -38 -184q-37 -62 -112 -62
q-100 0 -180 88q-70 88 -70 177q50 -65 150 -65q75 0 112 17q38 17 38 52v40q0 60 -50 60t-50 -80q-75 0 -112 37q-38 38 -38 113q0 80 45 120t135 40q85 0 128 -31q42 -32 42 -94z" />
    <glyph glyph-name="uni1781.sub" 
d="M-1450 -252q0 68 139 135q140 67 440 67q192 0 356.5 -58.5t164.5 -101.5q0 -53 -181 -143q-180 -89 -532 -124q54 -21 258 -21q126 0 259 44q137 52 123 91q73 -25 73 -85q0 -86 -126 -169q-127 -83 -387 -83q-294 0 -440 65q-147 65 -147 133q0 67 140 73t376 41
q235 35 235 89q0 46 -248 49q-190 0 -247 -24t-37 -53l30 -29q-133 -46 -191 -4t-58 108z" />
    <glyph glyph-name="uni1782.sub" 
d="M-514 -431q16 -25 55 -30v65zM-1449 -435q0 188 147 285q145 98 441 98q3 0 6 -1q210 0 358 -48t148 -114v-259q0 -98 -37 -154q-36 -57 -109 -74q-79 0 -149.5 65.5t-64.5 130t60 97.5l162 76q-41 20 -118 37q-76 16 -265 16q-216 0 -324 -61q-109 -62 -109 -114
q0 -26 37 -37q66 85 143 116.5t150 31.5q147 0 147 -114t-146 -113q-1 101 -82 101q-45 0 -58 -50q-14 -51 66 -51q-37 -130 -148 -130q-108 0 -181.5 63.5t-73.5 202.5z" />
    <glyph glyph-name="uni1783.sub" horiz-adv-x="850" 
d="M700 -300q0 -400 -425 -400q-225 0 -325 100q-148 -100 -296 -100h-3q-229 0 -365 75t-136 225q160 0 205.5 45t44.5 100q0 35 -50 35t-50 -80q-150 0 -150 100q0 150 175 150t175 -150q0 -100 -100 -250q0 -50 250 -50t250 50t-100 50t-130 -30v163q0 54 43 101l107 116
q150 -80 200 -60q-20 -130 -80 -130q-36 0 -67 12.5t-53 12.5q-25 0 -52 -36q76 1 154 -34t78 -105q0 -110 275 -110t275 150v983q-6 26 -62 50q-113 47 -338 -33v574q0 76 104 176t140 100t149.5 -68t206.5 -68q-81 -273 -165.5 -273.5t-145.5 34.5t-109.5 15t-78.5 -140
q124 55 262 3t187 -153v-1150z" />
    <glyph glyph-name="uni1784.sub" 
d="M-1450 -380q0 115 62 172q63 58 188 58q75 0 112 -35q38 -35 38 -105q0 -55 -37 -82q-37 -28 -112 -28q0 90 -45 90t-45 -45q0 -47 60 -71t180 -24q275 0 437 100t212 300q45 0 45 -68q0 -8 -1 -18q-18 -258 -193 -411t-500 -153q-201 0 -301 80t-100 240z" />
    <glyph glyph-name="uni1785.sub" 
d="M-1450 -350q101 0 226 18q124 19 124 82q0 50 -24 62q-26 13 -76 -12q0 75 38 112q37 38 112 38t112 -32q38 -33 38 -98q0 -76 -62 -131t-187 -89q0 -50 219 -50q336 0 375 64q-97 16 -146 58q-49 41 -49 108q0 85 50 128q50 42 150 42t150 -50t50 -150q-4 -42 -9 -70h16
q171 -15 257 -55t86 -105q0 -60 -62 -90q-63 -30 -188 -30q50 50 50 100q0 60 -184 84q-52 -142 -188 -212q-136 -72 -357 -72q-261 0 -391 87t-130 263zM-517 -300q8 23 7 50q0 50 -40 50q-50 0 -50 -40t83 -60z" />
    <glyph glyph-name="uni1786.sub" 
d="M-1206 -422q19 -44 86 -49v49h-86zM-681 -700q-129 0 -175 59.5t-71 139.5q-25 79 -83 79v-62q0 -93 -48 -147t-134 -70q-61 0 -159 62.5t-99 247.5q0 62 147 62h183q-36 62 -178 62q-119 0 -152 -31v248l86 -1q129 0 241.5 -34.5t112.5 -109.5v-134q66 0 116.5 -32.5
t86.5 -97.5q24 -43 125 -43q108 0 164 49q57 50 57 124q0 62 -37 62q-36 0 -36 -16q0 -15 36 -15q-36 -93 -113 -93q-90 0 -135 38q-45 39 -45 117q0 77 55 116q55 38 165 38q74 0 147 -61q73 -62 73 -185q0 -171 -95 -272q-95 -100 -235 -100z" />
    <glyph glyph-name="uni1787.sub" 
d="M-1450 -51h110q195 0 278 -57q82 -57 82 -138q0 -120 -93 -169q82 -38 300 -38q152 0 258 68q105 78 164 235q0 -291 -130 -421t-390 -130q-323 0 -451 90q-128 89 -128 205q14 30 37 30q124 0 201 21t77 50q0 30 -91 33t-224 -26v247z" />
    <glyph glyph-name="uni1788.sub" horiz-adv-x="850" 
d="M-50 -600q-148 -100 -296 -100h-3q-229 0 -365 75t-75 144q49 41 78.5 81t44.5 95q16 55 -273 55q-199 1 -293 -42q-93 -43 -93 -100q0 -75 77 -75q72 1 72 36q0 48 -74 48q37 39 110 39t113 -46q40 -45 40 -134q0 -79 -44.5 -127.5t-131.5 -48.5q-104 0 -195 83
q-92 82 -92 228q1 172 148 255q146 84 357 84q223 0 334 -50l111 -50q0 -190 -100 -300q0 -50 250 -50q240 0 240 50t-95 50t-125 -30l3 189q17 51 82 121l65 70q150 -80 200 -60q-20 -130 -80 -130q-36 0 -67 12.5t-53 12.5q-25 0 -52 -36q76 1 159 -34t83 -105
q0 -110 265 -110q275 0 275 150v983q-6 26 -62 50q-113 47 -338 -33v574q0 76 104 176t140 100t149.5 -68t206.5 -68q-81 -273 -165.5 -273.5t-145.5 34.5t-109.5 15t-78.5 -140q124 55 262 3t187 -153v-1150q0 -400 -425 -400q-225 0 -325 100z" />
    <glyph glyph-name="uni1789.sub" 
d="M-150 -310q0 -170 -103 -255t-309 -85q-293 0 -473 100q-181 100 -335 100q-123 0 -280 -100q47 150 145 225t247 75q217 0 423 -125q207 -125 413 -125q69 0 104 38q35 37 35 112q0 100 -58 100q-61 0 -61 -100q-100 0 -150 38q-50 37 -50 112t51 112q52 38 154 38
q124 0 185 -65q62 -65 62 -195z" />
    <glyph glyph-name="uni1789.sub.alt" 
d="M-855 -392q0 -25 86 -43v68zM-112 -392q0 -25 87 -43v58zM-1005 -356q236 59 236 69q-1 11 -116 24t-239 13q-123 0 -255 -55q-186 54 -270 54q-83 1 -126 -34l-44 -27q0 -43 22 -73.5t67 -30.5q43 0 43 34q0 24 -88 35q45 17 149 17q87 0 144 -27t57 -60q0 -35 -41 -71
q-41 -35 -86 -58.5t-92 -27.5q-152 18 -229 70q-76 52 -77 174v53q0 87 157 156l156 70q214 -24 343 -86q103 69 220 86q116 -7 276 -45l120 -28q67 -15 108 3l41 17q81 36 199 53q116 -7 276 -44.5t160 -76.5v-280q0 -52 -43 -80t-131 -42q-59 -5 -183 41.5t-121 119.5
q32 31 111 51l157 38l79 17l-124 29q-125 28 -266 28q-106 0 -223 -55v-147q0 -52 -43 -80t-131 -42q-54 -2 -180.5 43t-126.5 121q35 28 114 54zM-25 -678q0 -122 -387 -122q-423 0 -662.5 38.5t-400.5 38.5q-282 0 -427 -72q40 194 523 194q339 0 582.5 -72t384.5 -72
q242 0 242 57q0 34 -96 27q0 -52 -98 -52q-144 0 -144 52q0 70 242 70q241 0 241 -87z" />
    <glyph glyph-name="uni178a.sub" 
d="M-515 -431q17 -25 55 -30v65zM-1450 -409q1 162 147 260.5t422 98.5q275 0 403 -49.5t128 -115.5v-259q0 -97 -37 -153q-36 -57 -109 -74q-52 1 -136 66t-78 129.5t61 96.5l162 77q-42 20 -119 36q-76 17 -265 17q-227 0 -340.5 -33t-113.5 -100q0 -55 77 -55
q-29 57 13 90t115 33t128 -51q55 -50 55 -129t-39 -127.5t-167 -48.5q-124 0 -215 83q-92 82 -92 208z" />
    <glyph glyph-name="uni178b.sub" 
d="M-1500 -380q101 30 213 80q-107 2 -160 40t-53 110q0 75 50 112q50 38 150 38t150 -50t50 -150h550v100q0 100 100 100t100 -100q0 -50 -50 -50q-47 0 -50 45v-95h150q200 0 250 -50q0 -50 -200 -150q0 100 -50 100h-133q25 -53 83 -150q-24 -124 -112 -187
q-88 -62 -238 -62q-50 -1 -125 59l-75 60l-70 -60q-69 -60 -129 -60q-311 99 -401 320zM-500 -400q-36 60 -49 100h-571q-25 -54 -99 -80q40 -50 170 -100q50 0 230 130q159 -130 209 -130q61 0 110 80zM-1400 -150q0 -50 125 -50h45q-1 100 -70 100q-100 0 -100 -50z" />
    <glyph glyph-name="uni178c.sub" 
d="M-1460 -489q43 29 158.5 35.5t419.5 84.5t304 106q-87 30 -182 30q-105 0 -216 -58q-158 58 -229 58q-75 0 -85 -37v-20q0 -19 30.5 -19t38.5 8q12 14 -25 14q-1 30 63 30q131 0 131 -74q0 -64 -185 -64q-106 0 -164 42q-59 42 -59 109q0 107 265 194q181 -30 291 -107
q87 85 186 107q99 -9 234.5 -55.5t135.5 -94.5q0 -62 -65 -105q-65 -44 -260 -104q-194 -60 -414 -103q14 -22 58.5 -32t157.5 -10q94 0 228 48t184 132q111 0 111 -52v-193q-1 -122 -130 -122q-130 0 -130 87q148 35 149 77v45l-74 -47q-186 -122 -505 -122
q-185 0 -303.5 67.5t-118.5 144.5z" />
    <glyph glyph-name="uni178d.sub" horiz-adv-x="850" 
d="M-374 -479l73 -24v57zM550 633q-6 26 -62 50q-113 47 -338 -33v574q0 76 104 176t140 100t149.5 -68t206.5 -68q-81 -273 -165.5 -273.5t-145.5 34.5t-109.5 15t-78.5 -140q124 55 262 3t187 -153v-1150q0 -400 -400 -400q-230 0 -336 187q-35 62 -155 63v-99
q0 -64 -36 -99t-110 -52q-69 0 -163.5 54.5t-94.5 156.5q30 27 96 60l198 97q-194 72 -298 72q-103 0 -214 -68q-156 67 -226 68q-70 0 -106.5 -25t-36.5 -90q0 -53 18.5 -90.5t55.5 -37.5q-33 38 -16.5 81.5t87 51t128.5 -33t58 -107.5t-52.5 -128t-131.5 -61
q-128 0 -192 76t-65 227v65q0 109 131 196l132 86q179 -30 288 -107q86 86 184 107q98 -8 231.5 -55t133.5 -95v-100q162 -1 244 -151q27 -50 248 -49q250 0 250 150v983z" />
    <glyph glyph-name="uni178e.sub" 
d="M185 -450q0 -30 88 -54v97zM-1920 -700q-377 0 -381 173v87q41 -13 220 -1q180 13 179 43q0 22 -143 22q-145 0 -256 -22v241q27 18 199 61.5t371 43.5q265 0 514 -53q247 -54 247 -100q0 -106 -155 -193l-155 -86q43 -36 96.5 -51t117.5 -15q73 0 122 30l63 41l42 -22
q41 -23 91 -35q62 -14 162 -14q99 0 148 22.5t49 66.5q-22 18 -94 30q-71 12 -216 12h-93v262q26 18 112 40l86 21q173 44 336 44q168 0 416 -49t248 -114v-334q0 -64 -44 -99t-133 -52q-61 0 -186 54.5t-125 164.5q35 19 115 51l160 65q80 32 80 54q0 30 -289 73
q-288 43 -352 43q-65 0 -142 -15t-148 -58h44q178 0 265 -43q89 -43 89 -129q0 -110 -133 -185t-257 -75q-98 0 -188 33l-90 33q-86 -66 -179 -66q-218 0 -373 60q-155 59 -155 154q16 28 44 28q213 0 350 91q69 45 44 78q-26 33 -146 54q-239 40 -392 40t-275 -15t-157 -37
q231 13 315 -25q83 -39 83 -104q1 -86 -154 -107q-155 -22 -155 -42q0 -23 46 -23q36 -1 36 10t-41 11q39 22 114 22t114.5 -26.5t39.5 -61.5q0 -48 -51 -77.5t-100 -29.5z" />
    <glyph glyph-name="uni178f.sub" 
d="M-515 -431q17 -25 55 -30v65zM-1450 -409q1 162 147 260.5t422 98.5q275 0 403 -49.5t128 -115.5v-259q0 -97 -37 -153q-36 -57 -109 -74q-52 1 -136 66t-78 129.5t61 96.5l162 77q-42 20 -119 36q-76 17 -265 17q-227 0 -340.5 -33t-113.5 -100q0 -55 77 -55
q-29 57 13 90t115 33t128 -51q55 -50 55 -129t-39 -127.5t-167 -48.5q-124 0 -215 83q-92 82 -92 208z" />
    <glyph glyph-name="uni1790.sub" 
d="M-1550 -450q0 175 110 262q110 88 330 88q210 0 389 -84t286 -251q125 -165 185 -165q90 0 150 50q0 -75 -38 -112q-37 -38 -112 -38q-135 0 -239 46q-103 46 -176 139q-87 107 -209 161q-121 54 -236 54q-170 0 -255 -38q-85 -37 -85 -112q0 -120 80 -120q70 0 70 120
q100 0 150 -31t50 -94t-38 -94q-37 -31 -112 -31q-150 0 -225 62q-75 63 -75 188z" />
    <glyph glyph-name="uni1791.sub" 
d="M-1450 -51h110q110 0 219 -34q110 -33 110 -146q0 -112 -103 -183q14 -59 69 -59q62 0 176 130t275 130q91 0 166 -58t75 -180t-64 -185q-64 -64 -155 -64q-92 0 -138 32q-45 33 -45 98t37 97q36 33 109 33q0 -33 37 -33q36 0 36 29q0 88 -109 88q-95 0 -163 -86l-68 -86
q-135 -172 -208 -172q-110 0 -238 90q-128 88 -128 217q14 18 37 18q175 0 234 24q58 24 58 59q0 33 -87 33t-242 -19v227z" />
    <glyph glyph-name="uni1792.sub" 
d="M-1450 -375q47 0 368 70q90 24 90 51q0 49 -30.5 49t-60.5 -28q0 92 45 137q46 46 138 46t138 -35q45 -35 45 -104q0 -57 -64 -101.5t-191 -77.5l-248 -62q32 -42 78 -63t105 -21q46 0 87 45l83 106q41 35 87 35q33 0 62 -35l60 -69q33 -35 79 -35t69 35q22 34 22 104
q0 79 -45 148q-46 70 -138 130q161 0 241 -70q80 -69 80 -208q0 -186 -57 -278q-58 -93 -172 -93q-138 0 -183 46l-92 93q-137 -140 -228 -140q-170 0 -269 124t-99 201z" />
    <glyph glyph-name="uni1793.sub" 
d="M-1206 -410q19 -47 86 -52v52h-86zM-680 -699q-170 0 -205.5 60t-50.5 144.5t-74 84.5v-65q0 -96 -48 -152t-134 -73q-56 0 -156.5 65t-101.5 257q37 64 183 64h147q0 64 -146 64q-124 0 -184 -32v231h110q147 0 239 -30q91 -30 91 -135v-98q66 0 117 -34t80.5 -74
t131.5 -40q122 0 190 51.5t68 231.5q73 -32 73 -135q0 -144 -95.5 -264.5t-234.5 -120.5z" />
    <glyph glyph-name="uni1794.sub" horiz-adv-x="850" 
d="M700 -450q-53 -125 -126 -188q-73 -62 -166 -62q-89 0 -159 38q-70 37 -122 112q-52 -75 -127 -112q-76 -38 -175 -38q-187 0 -281 75t-94 225t61 225q59 75 179 75q88 0 133 -38q44 -37 44 -112t-52 -112q-52 -38 -156 -38q0 100 -52 100t-52 -60q0 -45 53 -68
q53 -22 158 -22q107 0 185 38q77 37 124 112q52 -75 122 -112q70 -38 159 -38q93 0 143.5 50t50.5 150v883q-6 26 -62 50q-113 47 -338 -33v574q0 76 104 176t140 100t149.5 -68t206.5 -68q-81 -273 -165.5 -273.5t-145.5 34.5t-109.5 15t-78.5 -140q124 55 262 3t187 -153
v-1300z" />
    <glyph glyph-name="uni1795.sub" 
d="M-1450 -51h110q165 0 248 -57q82 -57 82 -138q0 -129 -103 -168q14 -28 47 -44.5t84 -16.5t92 45l53 62l34 -33q34 -34 86 -54q51 -20 97 -20t102 40q57 40 57 98q0 59 -37 59q-36 0 -36 -16q0 -17 36 -17q-36 -64 -119.5 -64t-128.5 34t-45 95q0 81 55 122t165 41
q74 0 147 -65t73 -188q0 -152 -110 -258t-190 -106q-66 0 -141 49l-74 49q-71 -98 -148 -98q-180 0 -308 90q-128 88 -128 217q14 18 37 18q124 0 201 21t77 55t-91 47t-224 -26v227z" />
    <glyph glyph-name="uni1796.sub" 
d="M-534 -450q0 -29 73 -53v97zM-759 -260q-103 0 -214 -68q-156 67 -226 68q-70 0 -106.5 -25t-36.5 -90q0 -53 18.5 -90.5t55.5 -37.5q-23 41 -5.5 84t82 51t122.5 -34t58 -124t-52.5 -128t-131.5 -46q-128 0 -192 76t-65 227v65q0 109 131 196l132 86q179 -30 288 -107
q86 86 184 107q98 -8 232 -55t134 -95v-349q0 -64 -36 -99t-110 -52q-54 0 -156 54.5t-102 156.5q30 27 96 60l132 65l66 32q-194 72 -298 72z" />
    <glyph glyph-name="uni1797.sub" 
d="M-514 -431q16 -24 55 -30v65zM-1450 -373q0 146 147 234q146 89 422 89t404 -49.5t128 -115.5v-259q0 -97 -37 -153q-36 -57 -109 -74q-38 1 -129.5 66t-91.5 166q13 28 67 60l162 77q-41 20 -118 37q-76 16 -265 16q-433 0 -433 -33q147 -16 221 -66q73 -50 73 -134
q0 -94 -55 -142q-55 -46 -165 -46t-165 39t-55 117q0 67 44 92q44 26 131 9q-29 -6 -29 -35q0 -27 70 -27t70 31q0 62 -125 71t-162 -14v44z" />
    <glyph glyph-name="uni1798.sub" 
d="M-350 -233q-50 0 -75 -19t-25 -57h50q100 0 150 -49q50 -48 50 -146q0 -97 -50 -145q-50 -49 -150 -49q-75 0 -112 48q-38 49 -38 146v108q-75 0 -112 -43q-38 -43 -38 -129q1 -130 -150 -130h-50q-100 0 -250 130q-75 64 -200 97q-125 32 -300 32q0 89 200 89
q201 0 350 -73q148 -73 224 -73q76 1 126 94q49 93 200 93q0 129 50 194t150 65v-183zM-401 -592q50 0 50 88q0 108 -49 108h-50v-108q0 -88 49 -88z" />
    <glyph glyph-name="uni1799.sub" horiz-adv-x="850" 
d="M550 633q-6 26 -62 50q-113 47 -338 -33v574q0 76 104 176t140 100t149.5 -68t206.5 -68q-81 -273 -165.5 -273.5t-145.5 34.5t-109.5 15t-78.5 -140q124 55 262 3t187 -153v-1200q-30 -165 -181 -258q-151 -92 -410 -92t-409 88q-150 87 -150 262q0 150 75 225t225 75
q125 0 188 -38q62 -37 62 -112t-44 -112q-44 -38 -131 -38q-75 0 -125 50q0 50 -50 50t-50 -50q0 -75 112 -112q113 -38 313 -38t313 75q112 75 112 225v783z" />
    <glyph glyph-name="uni179a.sub" horiz-adv-x="850" 
d="M700 0q0 -130 -120 -187q0 -106 141 -159t324 -54q317 1 426 93q109 93 129 257q50 0 50 -100q0 -200 -200 -350t-505 -150q-385 0 -569 123q-185 123 -226 427q400 0 400 240v493q-6 26 -62 50q-113 47 -338 -33v574q0 76 104 176t140 100t149.5 -68t206.5 -68
q-81 -273 -165.5 -273.5t-145.5 34.5t-109.5 15t-78.5 -140q124 55 262 3t187 -153v-850z" />
    <glyph glyph-name="uni179b.sub" 
d="M-250 -300q0 -200 -112 -300t-336 -100q-176 0 -267 62q-91 63 -98 188l171 100q-20 50 -76 75t-149 25q-168 0 -252 -50q-85 -50 -85 -150q0 -70 26 -105q27 -35 80 -35q38 0 38 40q-45 0 -68 25q-22 25 -22 75q-1 50 29 75q31 25 91 25q65 0 98 -36q32 -36 32 -109
q0 -103 -50 -154q-49 -51 -148 -51q-101 0 -152 62q-50 63 -50 188q0 200 108 300t325 100q148 0 256 -50q109 -50 177 -150q0 -100 -165 -200q0 -50 151 -50q140 0 244 60q105 59 104 390q50 -50 75 -113q25 -62 25 -137z" />
    <glyph glyph-name="uni179c.sub" 
d="M-350 -48q0 -208 -173 -431q-174 -224 -472 -224q-217 0 -356 92q-148 101 -149 216q0 67 192 84q191 18 479 100q287 83 479 211v-48zM-504 -222q-115 -43 -316 -101t-488 -92q1 -40 117 -64t196 -24q155 0 308 103t183 178z" />
    <glyph glyph-name="uni179d.sub" 
d="M-1449 -435q0 188 147 285q145 98 441 98q3 0 6 -1q250 0 442 -72q64 -24 101 -11q-31 -39 -36 -69q82 26 175 70q-59 -207 -162 -264q-7 -4 -14 -7v-68q0 -98 -37 -154q-36 -57 -109 -74q0 33 -55 58l-55 24q-110 49 -111 211q13 -31 63 -2q-40 27 -54 76q-8 31 4 51
q-68 4 -167 4q-216 0 -324 -61q-109 -62 -109 -114q0 -26 37 -37q66 85 143 116.5t150 31.5q147 0 147 -114t-146 -113q-1 101 -82 101q-45 0 -58 -50q-14 -51 66 -51q-37 -130 -148 -130q-108 0 -181.5 63.5t-73.5 202.5zM-502 -444q16 -13 43 -17v20q-21 -3 -43 -3z" />
    <glyph glyph-name="uni179e.sub" horiz-adv-x="851" 
d="M700 240q78 26 165 65q-60 -202 -165 -261v-494q-51 -125 -124 -188q-73 -62 -167 -62q-88 0 -158 38q-71 37 -123 112q-52 -75 -127 -112q-76 -38 -175 -38q-188 0 -282 75t-94 225t61 225q59 75 179 75q89 0 134 -38q44 -37 44 -112t-53 -112q-52 -38 -156 -38
q0 100 -52 100t-52 -60q0 -45 53 -68q53 -22 158 -22q108 0 186 38q77 37 124 112q52 -75 123 -112q70 -38 158 -38q94 0 143.5 50t49.5 150v247q-46 -3 -89 1q-126 14 -153 107t148 93q43 0 94 6v429q-6 26 -62 50q-113 47 -338 -33v574q0 76 104 176t140 100t149.5 -68
t206.5 -68q-81 -273 -165.5 -273.5t-145.5 34.5t-109.5 15t-78.5 -140q124 55 262 3t187 -153v-610z" />
    <glyph glyph-name="uni179f.sub" horiz-adv-x="850" 
d="M88 -700q-266 0 -402 75t-136 225q160 0 205.5 35t44.5 60q0 35 -50 35t-50 -80q-150 0 -150 100q0 150 175 150t175 -150q0 -100 -50 -150q0 -50 238 -50q237 0 350 50q112 50 112 150v246q-111 4 -247 52q98 96 83 274q82 -87 164 -122v433q-6 26 -62 50
q-113 47 -338 -33v574q0 76 104 176t140 100t149.5 -68t206.5 -68q-81 -273 -165.5 -273.5t-145.5 34.5t-109.5 15t-78.5 -140q124 55 262 3t187 -153v-682q82 -8 181 -7q-60 -109 -181 -147v-344q0 -185 -151 -278q-151 -92 -461 -92z" />
    <glyph glyph-name="uni17a0.sub" 
d="M-275 -437q0 -15 70 -41v65zM-1698 -49h122q305 0 305 -207q0 -117 -135 -175q49 -49 130.5 -81t217.5 -32q146 0 226 29.5t80 53.5q0 31 -231 30h-75v318l11 -12q10 -13 148 31.5t233 44.5q170 0 369 -50.5t199 -124.5v-306q0 -73 -35.5 -112.5t-106.5 -58.5
q-64 1 -156.5 62t-92.5 182q28 26 156 67.5t128 68.5t-192 68.5t-314 41.5q-123 0 -240 -49h36q142 0 212 -49q71 -49 71 -146q0 -86 -142 -166t-384 -80q-263 0 -401.5 77.5t-138.5 201.5q14 15 36 15q135 0 206 38t71 76t-313 38v206z" />
    <glyph glyph-name="uni17a1.sub" 
d="M-1570 -193q57 38 113 64q171 77 318 77q165 0 292 -64q128 -65 128 -146q0 -52 -44 -82t-132 -30q-136 0 -136 64q0 65 102 65q51 0 68 -22q-28 0 -28 -20q0 -21 28 -21q57 0 57 28q0 37 -93 57q-93 21 -250 21q-158 0 -242 -17q-85 -16 -96 -48q86 0 170 -22
q85 -22 85 -97q0 -74 -79 -121q22 -39 65 -39q36 0 124 64q89 65 214 65q71 0 129 -38q58 -39 57 -98q1 -59 -49 -101q-49 -42 -120 -42t-107 21q-35 22 -35 65t28 64q29 22 85 22q0 -22 29 -22q28 0 28 19q0 37 -85 37q-74 0 -126 -52l-53 -51q-105 -103 -161 -103
q-85 0 -185 59q-99 59 -99 127q11 28 57 28q108 0 153 17q45 16 45 38q0 23 -67 23q-68 0 -188 -13v224zM-577 -156q17 18 46 40l89 64q72 -46 125 -64q52 -19 79 -12q-50 -117 -104 -117q-31 0 -63 10q-32 11 -62 11q-36 0 -53 -43q85 0 156 -27q70 -28 70 -80v-494
q0 -129 -170 -129q-113 0 -170 64q-57 -64 -170 -64q-199 0 -199 112q91 0 117 23q26 24 25 35q0 10 -28 10q-29 0 -29 -30q-85 0 -85 43q0 65 100 65q99 0 99 -65q0 -43 -29 -81q0 -17 57 -17q91 0 142 60q57 -60 153 -60q102 0 102 55v323q0 56 -14 75t-64 25
q-50 7 -120 7v261z" />
    <glyph glyph-name="uni17a2.sub" 
d="M-515 -430q16 -25 54 -30v65zM-1206 -430q19 -25 86 -30v65zM-985 -205q87 -68 165 -81.5t176 0.5q-34 -67 -128 -100q-93 -32 -230 -1q46 69 17 182zM-1450 -50l86 -1h65q64 0 176 -41q112 -43 112 -121v-260q0 -97 -47 -155q-48 -56 -134 -73q-69 1 -163 66t-95 199
q100 36 330 120q-73 18 -148 28q-76 10 -182 10v228zM-718 -50l74 -1q110 0 202 -41q91 -43 91 -121v-260q0 -97 -37 -154q-36 -57 -109 -74q-59 1 -139.5 66t-81.5 189q85 46 172 88l86 42q-38 18 -102 28q-65 10 -156 10v228z" />
    <glyph glyph-name="uni17a3.sub" 
d="M-515 -430q16 -25 54 -30v65zM-1206 -430q19 -25 86 -30v65zM-985 -205q87 -68 165 -81.5t176 0.5q-34 -67 -128 -100q-93 -32 -230 -1q46 69 17 182zM-1450 -50l86 -1h65q64 0 176 -41q112 -43 112 -121v-260q0 -97 -47 -155q-48 -56 -134 -73q-69 1 -163 66t-95 199
q100 36 330 120q-73 18 -148 28q-76 10 -182 10v228zM-718 -50l74 -1q110 0 202 -41q91 -43 91 -121v-260q0 -97 -37 -154q-36 -57 -109 -74q-59 1 -139.5 66t-81.5 189q85 46 172 88l86 42q-38 18 -102 28q-65 10 -156 10v228z" />
    <glyph glyph-name="uni17a4.sub" 
d="M-848 -564q10 -18 35 -22v47zM-1293 -564q12 -18 55 -22v47zM-1450 -123l8 -12q9 -12 37 11l87 71q69 -50 121 -71q51 -20 77 -12q-45 -129 -91 -129q-47 0 -75 12q-27 11 -56 11q-36 0 -52 -47h41q42 0 114 -30q72 -31 96 -31q-24 -24 -24 -57v-188q0 -71 -31 -113
q-31 -41 -86 -53q0 24 -41 42l-42 17q-83 36 -83 177q10 -23 38 -20q26 3 175 63q-47 14 -96 21t-117 7v331zM-1150 -401q56 -49 106 -59q50 -9 113 0q-22 -48 -82 -72t-148 -1q29 50 11 132zM-459 -488q0 -33 47 -58v105zM-978 -123l7 -12q7 -12 53 11l45 24q92 47 179 47
q1 1 2 1q90 0 318 -94q33 -13 57 1q-24 -51 -24 -86v-365q0 -70 -23.5 -108.5t-70.5 -56.5q0 24 -36 48l-36 23q-94 48 -94 213q19 -24 61 11l85 71q43 36 43 59q0 34 -142 80q-141 47 -194 47q-39 0 -85 -16q-46 -17 -85 -64q58 0 117 -30q59 -31 83 -31q-24 -24 -24 -57
v-188q0 -71 -24 -112q-23 -42 -70 -54q0 24 -36 42l-35 17q-71 36 -71 177q9 -23 32 -20q22 3 78 33l55 30q-24 14 -65 21q-42 7 -100 7v331z" />
    <glyph glyph-name="uni17a5.sub" 
d="M-1450 -742q1 143 147 229q18 11 37 20q-42 77 -184 95v173q15 -29 44 -29t194 57l166 57q423 -143 468 -143q46 0 46 29q0 35 -61 72q-60 37 -196 37q73 149 165 149q91 0 183 -55q92 -54 92 -117q0 -86 -113 -158t-256 -72q-159 0 -280 37q-122 38 -184 38
q-63 0 -121 -35q92 -25 148 -98q123 30 300 29q250 0 442 -64q64 -21 101 -10q-37 -40 -37 -69v-230q0 -86 -37 -136q-36 -50 -109 -65q0 29 -55 51l-55 21q-111 44 -111 187q13 -29 67 0l162 68q-41 17 -118 32q-76 15 -265 15q-228 0 -341.5 -29.5t-113.5 -88.5
q0 -49 78 -48q91 0 91 31q0 43 -74 43q38 34 110 34q74 0 129 -45q55 -44 55 -114t-74 -99q-73 -28 -73 -57q-184 0 -275 73q-92 73 -92 185zM-514 -762q16 -22 55 -26v57z" />
    <glyph glyph-name="uni17a6.sub" 
d="M-877 -516q0 -27 50 -47v84zM-827 -391q0 33 -75.5 62t-205.5 29q-155 0 -238 -50t-83 -128q0 -20 13 -53q12 -33 38 -33q25 0 25 37q0 26 -51 38q26 19 86 19q50 0 82 -30q33 -29 33 -66t-24 -76q-23 -39 -70 -60q-31 -14 -31 -33q-88 19 -132 76q-43 56 -44 189v56
q1 98 101 172t306 74q170 0 302 -65q43 -14 69 -7q-25 -26 -26 -45v-318q0 -56 -24.5 -87t-74.5 -46q0 19 -38 39l-38 19q-100 38 -100 170q20 -19 65 9l90 57q45 28 45 51zM-950 -890q9 -18 43 -20v20h-43zM-1404 -890q1 61 74 98q74 37 225 37q125 0 221 -20q32 -9 51 -4
q-19 -17 -19 -30v-45q33 0 59 -13q25 -13 40 -26t152 -12q113 0 169 28q57 28 57 85v261q-10 21 -51 31q-41 11 -122 11h-53v265l7 -9q8 -10 42 9l100 56q59 -40 89 -48q38 -10 38 16q0 33 -66 71q-67 38 -160 23q50 109 123 109q53 0 115 -34q63 -34 63 -154
q0 -76 -25 -114q-26 -39 -78 -39q-22 0 -58 13q-36 14 -67 14q-37 0 -72 -46h50q100 0 150 -38q50 -37 50 -117v-374q-25 -57 -100 -86q-76 -28 -201 -28q-196 0 -214 12l9 6q9 5 9 17t-13 43q-12 32 -42 32v-25q0 -36 -24 -57q-24 -22 -67 -28q0 12 -32 22l-32 9
q-65 18 -66 91q19 24 92 24h74q-21 13 -206 13q-114 0 -171 -12.5t-57 -37.5q0 -21 39 -21q46 1 46 14q0 18 -37 18q18 15 55 15q36 0 64 -20q28 -19 28 -48q0 -30 -37 -43q-37 -12 -37 -24q-92 0 -138 31t-46 79z" />
    <glyph glyph-name="uni17a7.sub" 
d="M-1450 -322q0 96 140 185q138 88 435 88q3 0 6 -1q192 0 481 -133q41 -18 41 12v-91q0 -76 -65 -142q-64 -66 -257 -150t-421 -145q14 -31 58.5 -52t125.5 -21q193 0 321 74.5t128 192.5q110 0 110 -73v-322q0 -106 -189 -106q-25 0 -54 1q133 45 133 197v81l-74 -66
q-184 -167 -441 -167q-184 0 -331 92q-147 93 -147 272q43 -30 187 -21t420 116q277 107 276 141q0 37 -126 68q-126 30 -253 30q-250 0 -308 -49q-57 -48 -57 -76q0 -27 44 -27q37 0 52 24q14 25 -22 25q7 42 91 42q100 0 100 -76q0 -136 -157 -136q-131 0 -189 59
q-58 60 -58 154z" />
    <glyph glyph-name="uni17a8.sub" 
d="M-1203 -333q-154 49 -247 28v177q14 -27 43 -27q28 0 90 26l186 78q141 -25 297 -98q103 72 191 98l121 -54q121 -55 199 -39q-86 -140 -149 -140q-85 0 -163 31.5t-131 30.5q-74 0 -186 -62q-108 52 -225 62q-75 0 -131 -26q91 -23 105 -85zM-1450 -536q0 71 140 135
q139 65 441 64q192 0 481 -97q41 -14 41 8v-66q0 -56 -65 -104q-64 -48 -257 -110q-193 -61 -421 -106q14 -22 58.5 -37.5t125.5 -15.5q193 0 321 54.5t128 140.5q110 0 110 -53v-235q0 -79 -192 -79q-24 0 -51 1q133 34 133 144v60l-74 -49q-184 -122 -441 -122
q-184 0 -331 68t-147 199q43 -23 187 -16t420 85q277 78 276 103q0 27 -126 50q-126 22 -253 22q-250 0 -308 -36q-57 -35 -57 -55t44 -20q37 0 52 18q14 18 -22 18q7 30 91 30q100 0 100 -55q0 -100 -157 -100q-131 0 -189 44q-58 43 -58 112z" />
    <glyph glyph-name="uni17a9.sub" 
d="M-244 -936v425l135 62v-487l-68 -62h-134zM-1450 -322q0 96 140 185q138 88 435 88q3 0 6 -1q192 0 481 -133q41 -18 41 12v-91q0 -76 -65 -142q-64 -66 -257 -150t-421 -145q14 -31 58.5 -52t125.5 -21q193 0 321 74.5t128 192.5q110 0 110 -73v-322q0 -106 -189 -106
q-25 0 -54 1q133 45 133 197v81l-74 -66q-184 -167 -441 -167q-184 0 -331 92q-147 93 -147 272q43 -30 187 -21t420 116q277 107 276 141q0 37 -126 68q-126 30 -253 30q-250 0 -308 -49q-57 -48 -57 -76q0 -27 44 -27q37 0 52 24q14 25 -22 25q7 42 91 42q100 0 100 -76
q0 -136 -157 -136q-131 0 -189 59q-58 60 -58 154z" />
    <glyph glyph-name="uni17aa.sub" 
d="M-1264 -374q-41 60 -186 75v130q15 -22 44 -22t194 43l166 43q423 -108 468 -108q46 0 46 22q0 27 -61 55q-60 28 -196 28q73 112 165 112q91 0 183 -41t92 -89q0 -65 -113 -119t-256 -54q-159 0 -280 28q-122 28 -184 28q-63 0 -121 -26q94 -20 150 -77zM-1450 -536
q0 71 140 135q139 65 441 64q192 0 481 -97q41 -14 41 8v-66q0 -56 -65 -104q-64 -48 -257 -110q-193 -61 -421 -106q14 -22 58.5 -37.5t125.5 -15.5q193 0 321 54.5t128 140.5q110 0 110 -53v-235q0 -79 -192 -79q-24 0 -51 1q133 34 133 144v60l-74 -49
q-184 -122 -441 -122q-184 0 -331 68t-147 199q43 -23 187 -16t420 85q277 78 276 103q0 27 -126 50q-126 22 -253 22q-250 0 -308 -36q-57 -35 -57 -55t44 -20q37 0 52 18q14 18 -22 18q7 30 91 30q100 0 100 -55q0 -100 -157 -100q-131 0 -189 44q-58 43 -58 112z" />
    <glyph glyph-name="uni17ab.sub" 
d="M-1450 -114l11 -11q11 -11 60 11l148 65q86 -47 172 -65q87 -19 122 -12q-73 -118 -128 -119q-54 0 -106 15q-53 16 -99 16q-54 0 -106 -53h52q132 0 224 -33q91 -34 91 -98t-103 -112q14 -22 98.5 -37.5t225.5 -15.5q151 0 233.5 26.5t82.5 69.5q0 24 -60 36
q-59 12 -179 12h-77v305l11 -11q11 -11 49 11l115 65q93 -47 162 -65q67 -19 103 -12q-73 -118 -114 -119q-39 0 -91.5 15.5t-91.5 15.5q-47 0 -69 -53h74q147 0 219 -43q74 -44 74 -130q0 -120 -147 -191t-441 -71q-258 0 -386 60q-129 60 -129 180q14 -22 37 -22
q139 0 213 14t74 28t-73 19q-73 4 -251 4v305zM-347 -837q0 -68 -93 -115.5t-279 -47.5q-620 1 -621 248q248 -140 665 -140q87 0 152 14q66 13 66 41q0 54 -60 54q-50 0 -50 -54q-162 0 -162 54q0 40 50 60q50 21 148 21q92 0 138 -34t46 -101z" />
    <glyph glyph-name="uni17ac.sub" 
d="M-1450 -114l11 -11q11 -11 60 11l148 65q86 -47 172 -65q87 -19 122 -12q-73 -118 -128 -119q-54 0 -106 15q-53 16 -99 16q-54 0 -106 -53h52q132 0 224 -33q91 -34 91 -98t-103 -112q14 -22 98.5 -37.5t225.5 -15.5q151 0 233.5 26.5t82.5 69.5q0 24 -60 36
q-59 12 -179 12h-77v305l11 -11q11 -11 49 11l115 65q93 -47 162 -65q67 -19 103 -12q-73 -118 -114 -119q-39 0 -91.5 15.5t-91.5 15.5q-47 0 -69 -53h74q147 0 219 -43q74 -44 74 -130q0 -120 -147 -191t-441 -71q-258 0 -386 60q-129 60 -129 180q14 -22 37 -22
q139 0 213 14t74 28t-73 19q-73 4 -251 4v305zM-347 -837q0 -68 -93 -115q-58 -30 -154 -41l19 -25q25 -30 160 -56q-61 -23 -115 -23q-22 0 -41 4q-69 14 -93 43l-13 17l-27 33h-15q-620 1 -621 248q248 -140 665 -140q87 0 152 14q66 13 66 41q0 54 -60 54q-50 0 -50 -54
q-162 0 -162 54q0 40 50 60q50 21 148 21q92 0 138 -34t46 -101z" />
    <glyph glyph-name="uni17ad.sub" 
d="M-534 -450q0 -29 73 -53v97zM-759 -260q-103 0 -214 -68q-156 67 -226 68q-70 0 -106.5 -25t-36.5 -90q0 -53 18.5 -90.5t55.5 -37.5t37 41q0 31 -74 44q37 21 125 21q73 0 121 -33q48 -34 48 -75q0 -43 -35 -87q-34 -45 -104 -69q-45 -17 -45 -39q-128 22 -192 87
t-65 216v65q0 109 131 196l132 86q179 -30 288 -107q86 86 184 107q98 -8 232 -56l101 -35q33 -11 70 -8q-37 -10 -37 -51v-349q0 -64 -36 -99t-110 -52q0 21 -55 44l-56 22q-147 43 -147 195q30 -23 96 10l132 65l66 32q-194 72 -298 72zM-347 -837q0 -68 -93 -115.5
t-279 -47.5q-620 1 -621 248q248 -140 665 -140q87 0 152 14q66 13 66 41q0 54 -60 54q-50 0 -50 -54q-162 0 -162 54q0 40 50 60q50 21 148 21q92 0 138 -34t46 -101z" />
    </font>
</defs>
</svg>
