<?xml version="1.0" standalone="no"?>
<!DOCTYPE svg PUBLIC "-//W3C//DTD SVG 1.1//EN" "http://www.w3.org/Graphics/SVG/1.1/DTD/svg11.dtd">
<svg xmlns="http://www.w3.org/2000/svg">
<defs >
<font id="KantumruyPro" horiz-adv-x="627" ><font-face
    font-family="Kantumruy Pro"
    units-per-em="1000"
    panose-1="0 0 0 0 0 0 0 0 0 0"
    ascent="920"
    descent="-260"
    alphabetic="0" />
<glyph unicode=" " glyph-name="space" horiz-adv-x="334" />
<glyph unicode="!" glyph-name="exclam" horiz-adv-x="261" d="M168 660V365L158 203H103L93 365V660H168ZM130 110Q157 110 173 94T190 50Q190 24 174 8T130 -9Q104 -9 88 7T71 50Q71 77 87 93T130 110Z" />
<glyph unicode="&quot;" glyph-name="quotedbl" horiz-adv-x="382" d="M318 689L295 453H239V689H318ZM159 689L136 453H80V689H159Z" />
<glyph unicode="#" glyph-name="numbersign" horiz-adv-x="638" d="M519 660L410 0H349L458 660H519ZM573 244V189H23V244H573ZM288 660L179 0H118L226 660H288ZM615 474V419H65V474H615Z" />
<glyph unicode="$" glyph-name="dollar" horiz-adv-x="599" d="M306 1Q240 1 189 20T102 72T44 147L103 196Q120 157 149 128T219 83T311 67Q382 67 425 95T469 179Q469 216 446 240T369 277L230 310Q144 330 108 372T71 473Q71 524 98 567T177 635T300 661Q381
661 439 627T535 523L478 478Q447 542 401 569T292 596Q243 596 210 581T160 540T143 483Q143 446 166 419T253 377L382 347Q440 334 475 312T525 258T541 185Q541 131 512 90T430 25T306 1ZM272 -100V760H333V-100H272Z" />
<glyph unicode="%" glyph-name="percent" horiz-adv-x="825" d="M173 0L585 660H653L240 0H173ZM192 669Q240 669 274 646T327 583T346 489Q346 436 328 395T275 332T192 309Q145 309 111 331T59 395T40 489Q40 542 58 582T111 646T192 669ZM192 612Q164 612 144
597T114 555T104 489Q104 451 114 424T144 381T192 366Q222 366 242 381T272 423T282 489Q282 527 272 554T242 597T192 612ZM633 351Q680 351 714 329T767 266T786 171Q786 118 768 77T715 14T633 -9Q586 -9 552 13T499 77T480 171Q480 225 498 265T551 328T633
351ZM633 295Q604 295 584 280T554 237T544 171Q544 134 554 106T584 63T633 48Q662 48 682 63T712 106T722 171Q722 209 712 237T682 280T633 295Z" />
<glyph unicode="&amp;" glyph-name="ampersand" horiz-adv-x="599" d="M249 -10Q187 -10 142 12T72 74T48 164Q48 208 63 245T115 314T212 373L248 392Q286 413 311 432T350 475T363 531Q363 568 341 588T282 608Q239 608 218 584T196 525Q196 506 201 488T222
444T270 375T356 261Q411 190 447 147T508 81T555 52T603 44L586 -10Q558 -10 534 -2T480 29T410 98T309 221Q256 289 221 334T166 412T138 471T129 524Q129 561 146 594T198 648T286 670Q327 670 358 654T407 609T425 538Q425 501 413 470T369 408T279 346L249
334Q200 309 171 286T129 235T116 171Q116 133 135 106T185 64T256 49Q310 49 348 69T417 128L428 139Q454 182 468 235T478 355L539 349Q541 285 525 221T472 107L458 88Q422 43 371 17T249 -10Z" />
<glyph unicode="&apos;" glyph-name="quotesingle" horiz-adv-x="223" d="M159 689L136 453H80V689H159Z" />
<glyph unicode="(" glyph-name="parenleft" horiz-adv-x="338" d="M270 750L311 708Q214 620 174 515T134 282Q134 154 174 49T311 -145L270 -187Q166 -97 113 21T60 282Q60 425 113 542T270 750Z" />
<glyph unicode=")" glyph-name="parenright" horiz-adv-x="338" d="M68 -187L27 -145Q125 -56 164 49T204 281Q204 409 165 514T27 708L68 750Q172 660 225 542T278 281Q278 139 225 21T68 -187Z" />
<glyph unicode="*" glyph-name="asterisk" horiz-adv-x="564" d="M296 507L371 426L442 326L395 292L322 390L268 487L282 497L296 507ZM268 507L282 497L296 487L242 390L169 292L122 326L193 426L268 507ZM69 597L187 560L288 514L282 497L277 481L168 503L52
542L69 597ZM312 730V607L300 497H282H265L252 607V730H312ZM495 597L512 542L396 503L288 481L282 497L277 514L377 560L495 597Z" />
<glyph unicode="+" glyph-name="plus" horiz-adv-x="604" d="M336 562V69H269V562H336ZM544 350V283H60V350H544Z" />
<glyph unicode="," glyph-name="comma" horiz-adv-x="254" d="M127 110Q160 110 178 85T197 19Q197 -12 186 -42T153 -98T94 -141L56 -106Q82 -97 101 -81T133 -44T148 -4L145 -2Q141 -5 135 -7T118 -9Q102 -9 85 5T67 49Q67 74 84 92T127 110Z" />
<glyph unicode="-" glyph-name="hyphen" horiz-adv-x="498" d="M411 300V225H87V300H411Z" />
<glyph unicode="." glyph-name="period" horiz-adv-x="274" d="M137 -9Q110 -9 94 7T77 50Q77 77 93 93T137 110Q164 110 180 94T197 50Q197 24 181 8T137 -9Z" />
<glyph unicode="/" glyph-name="slash" horiz-adv-x="426" d="M397 730L97 -70H29L329 730H397Z" />
<glyph unicode="0" glyph-name="zero" horiz-adv-x="600" d="M300 -10Q191 -10 128 77T64 330Q64 495 127 582T300 670Q409 670 472 583T536 330Q536 165 473 78T300 -10ZM300 55Q378 55 419 125T461 330Q461 464 420 534T300 605Q222 605 181 535T139 330Q139
196 180 126T300 55Z" />
<glyph unicode="1" glyph-name="one" horiz-adv-x="363" d="M190 0V495Q190 509 190 529T192 570Q161 534 120 509T36 472L19 538Q37 541 62 553T114 582T164 620T200 660H262V0H190Z" />
<glyph unicode="2" glyph-name="two" horiz-adv-x="559" d="M71 0V59Q164 132 228 188T332 290T389 378T407 465Q407 527 370 565T269 603Q202 603 162 558T115 435L52 473Q60 531 87 575T161 645T271 670Q336 670 383 644T456 572T482 465Q482 402 452 341T353
214T173 66V65Q183 66 200 66T234 66T261 67H497V0H71Z" />
<glyph unicode="3" glyph-name="three" horiz-adv-x="556" d="M278 -10Q193 -10 129 31T42 145L114 182Q130 126 170 92T283 57Q348 57 383 93T419 187Q419 225 405 249T363 286T290 299Q279 299 266 299T240 296V368Q249 367 258 367T274 367Q343 367 374 397T405
490Q405 545 373 574T282 603Q222 603 188 575T136 497L68 530Q84 572 114 603T188 653T284 671Q349 671 392 648T457 586T479 499Q479 464 470 436T444 386T406 352T360 335V333Q391 332 415 320T457 288T484 242T494 187Q494 129 467 85T391 15T278 -10Z" />
<glyph unicode="4" glyph-name="four" horiz-adv-x="585" d="M355 0V177H43V230Q43 230 43 230T44 230T45 230L335 660H426V239H541V177H426V0H355ZM119 239H355V501Q355 516 355 530T356 561T358 601H356Q349 587 339 568T317 531T295 497L119 239Q119 239 119
239T119 239Z" />
<glyph unicode="5" glyph-name="five" horiz-adv-x="558" d="M277 -10Q193 -10 141 29T61 142L131 179Q145 123 180 90T278 57Q323 57 355 75T405 127T423 205Q423 253 407 286T359 336T285 353Q236 353 199 337T140 286L77 298L114 660H469V593H174L150 372L148
362H150Q173 388 209 404T298 420Q358 420 403 394T472 320T497 208Q497 141 469 92T392 17T277 -10Z" />
<glyph unicode="6" glyph-name="six" horiz-adv-x="582" d="M312 670Q386 670 434 637T510 533L443 502Q429 548 397 575T307 603Q264 603 231 581T176 519T143 427T132 315Q132 310 132 303T133 284H137Q147 330 174 358T239 401T312 415Q376 415 423 389T496
316T523 203Q523 138 497 90T422 16T307 -10Q228 -10 174 33T92 154T64 330Q64 441 97 516T186 631T312 670ZM307 346Q265 346 233 328T182 277T164 203Q164 164 182 131T233 79T306 59Q373 59 410 97T448 204Q448 248 431 279T383 328T307 346Z" />
<glyph unicode="7" glyph-name="seven" horiz-adv-x="535" d="M38 660H503V593Q424 506 374 413T299 217T274 0H200Q202 169 262 325T443 611L455 593H38V660Z" />
<glyph unicode="8" glyph-name="eight" horiz-adv-x="591" d="M296 669Q387 669 441 623T496 498Q496 446 471 407T401 348V347Q458 327 491 284T525 177Q525 120 497 78T417 13T296 -10Q228 -10 176 13T95 78T66 177Q66 239 99 283T190 347V348Q146 366 121 405T95
498Q95 551 120 589T190 648T296 669ZM296 602Q238 602 204 573T169 491Q169 439 204 410T296 380Q352 380 387 409T423 491Q423 543 389 572T296 602ZM296 57Q343 57 377 72T431 116T450 184Q450 224 431 252T377 296T296 312Q250 312 215 297T161 253T141 184Q141
145 160 117T214 73T296 57Z" />
<glyph unicode="9" glyph-name="nine" horiz-adv-x="592" d="M286 670Q365 670 419 627T500 508T528 330Q528 219 500 144T418 29T286 -10Q207 -10 151 28T68 138L139 176Q154 123 189 90T288 57Q339 57 372 79T426 140T454 234T463 354Q463 362 463 367T461 379H457Q447
331 419 302T353 259T279 245Q217 245 170 270T95 342T68 451Q68 518 94 567T169 643T286 670ZM286 601Q217 601 180 561T143 449Q143 387 182 351T286 314Q328 314 360 332T410 383T429 458Q429 500 411 532T360 583T286 601Z" />
<glyph unicode=":" glyph-name="colon" horiz-adv-x="283" d="M152 390Q125 390 109 406T92 449Q92 476 108 492T152 509Q179 509 195 493T212 449Q212 423 196 407T152 390ZM152 -9Q125 -9 109 7T92 50Q92 77 108 93T152 110Q179 110 195 94T212 50Q212 24 196
8T152 -9Z" />
<glyph unicode=";" glyph-name="semicolon" horiz-adv-x="283" d="M141 110Q174 110 192 85T211 19Q211 -12 200 -42T167 -98T108 -141L70 -106Q96 -97 115 -81T147 -44T162 -4L159 -2Q155 -5 149 -7T132 -9Q116 -9 99 5T81 49Q81 74 98 92T141 110ZM152 390Q125
390 109 406T92 449Q92 476 108 492T152 509Q179 509 195 493T212 449Q212 423 196 407T152 390Z" />
<glyph unicode="&lt;" glyph-name="less" horiz-adv-x="604" d="M545 32L74 258V341L545 567V493L131 301L545 108V32Z" />
<glyph unicode="=" glyph-name="equal" horiz-adv-x="604" d="M537 439V371H67V439H537ZM537 238V171H67V238H537Z" />
<glyph unicode="&gt;" glyph-name="greater" horiz-adv-x="604" d="M59 567L530 341V258L59 32V106L473 298L59 491V567Z" />
<glyph unicode="?" glyph-name="question" horiz-adv-x="515" d="M212 201V350Q282 363 320 380T375 422T391 484Q391 521 376 547T330 588T254 603Q190 603 150 566T102 464L38 500Q48 552 77 590T153 649T259 670Q321 670 368 649T441 588T467 495Q467 437 444
399T379 340T286 311V201H212ZM259 -9Q232 -9 216 7T199 50Q199 77 215 93T259 110Q286 110 302 94T319 50Q319 24 303 8T259 -9Z" />
<glyph unicode="@" glyph-name="at" horiz-adv-x="925" d="M470 -192Q349 -192 258 -141T117 4T66 223Q66 321 97 401T186 538T320 627T487 659Q579 659 649 628T768 544T841 421T866 274Q866 210 850 158T807 69T745 13T672 -7Q621 -7 596 22T575 94Q553 52 512
27T422 1Q372 1 334 26T274 96T252 198Q252 254 268 302T314 387T384 444T473 465Q531 465 570 433T619 345L645 456H709L635 129Q633 119 632 110T630 93Q630 63 645 54T680 44Q715 44 745 71T794 149T813 274Q813 344 791 404T727 509T625 579T490 605Q411 605
345 579T229 502T153 382T126 223Q126 111 171 30T294 -95T470 -139Q549 -139 599 -118T681 -69L713 -113Q673 -145 617 -168T470 -192ZM442 56Q485 56 519 84T573 161T594 270Q594 314 579 344T538 391T477 408Q431 408 395 381T338 306T317 199Q317 154 332 122T375
73T442 56Z" />
<glyph unicode="A" glyph-name="A" horiz-adv-x="633" d="M609 0H532L462 189H170L100 0H24L274 660H360L609 0ZM195 257H437L316 590L195 257Z" />
<glyph unicode="B" glyph-name="B" horiz-adv-x="630" d="M107 0V660H334Q444 660 495 612T547 480Q547 431 520 389T437 336V335Q495 324 529 282T563 183Q563 99 504 50T334 0H107ZM179 67H348Q417 67 452 97T487 183Q487 239 452 269T348 299H179V67ZM179 366H333Q402
366 436 394T471 480Q471 536 437 564T333 593H179V366Z" />
<glyph unicode="C" glyph-name="C" horiz-adv-x="663" d="M618 169Q588 84 521 37T361 -10Q272 -10 206 31T103 149T67 330Q67 434 103 510T205 628T359 670Q422 670 470 652T553 600T607 514L537 480Q516 541 474 572T364 603Q298 603 248 571T170 477T142 330Q142
246 168 185T244 90T361 57Q429 57 477 92T546 196L618 169Z" />
<glyph unicode="D" glyph-name="D" horiz-adv-x="699" d="M313 660Q463 660 547 575T632 331Q632 171 548 86T313 0H107V660H313ZM319 67Q432 67 494 137T556 331Q556 414 528 472T447 562T319 593H179V67H319Z" />
<glyph unicode="E" glyph-name="E" horiz-adv-x="613" d="M107 0V660H550V593H179V369H469V301H179V67H564V0H107Z" />
<glyph unicode="F" glyph-name="F" horiz-adv-x="585" d="M548 593H179V369H468V301H179V0H107V660H548V593Z" />
<glyph unicode="G" glyph-name="G" horiz-adv-x="700" d="M362 -10Q272 -10 206 31T103 149T67 330Q67 435 105 511T210 628T367 670Q462 670 522 632T618 516L552 480Q531 541 484 572T367 603Q301 603 251 570T171 476T142 330Q142 245 168 184T243 90T365 57Q408
57 443 69T503 105T543 162T557 236V263H352V330H623V0H566L562 128L577 126Q552 62 498 26T362 -10Z" />
<glyph unicode="H" glyph-name="H" horiz-adv-x="711" d="M604 660V0H532V660H604ZM179 660V0H107V660H179ZM566 369V301H145V369H566Z" />
<glyph unicode="I" glyph-name="I" horiz-adv-x="286" d="M179 660V0H107V660H179Z" />
<glyph unicode="J" glyph-name="J" horiz-adv-x="540" d="M440 660V224Q440 115 384 53T229 -10Q160 -10 115 18T51 96T45 216L112 230Q102 144 128 101T227 57Q284 57 314 81T356 146T368 241V660H440Z" />
<glyph unicode="K" glyph-name="K" horiz-adv-x="626" d="M596 660L322 368L311 357L144 178L143 275L502 660H596ZM179 660V0H107V660H179ZM330 415L600 0H513L271 373L330 415Z" />
<glyph unicode="L" glyph-name="L" horiz-adv-x="573" d="M179 67H544V0H107V660H179V67Z" />
<glyph unicode="M" glyph-name="M" horiz-adv-x="828" d="M721 660V0H652V436L660 595H659L445 0H383L168 595H167L175 436V0H107V660H217L370 233L413 85H415L459 232L611 660H721Z" />
<glyph unicode="N" glyph-name="N" horiz-adv-x="711" d="M604 660V0H516L234 462L173 576H172L175 481V0H107V660H195L476 199L538 83H539L536 179V660H604Z" />
<glyph unicode="O" glyph-name="O" horiz-adv-x="726" d="M363 670Q454 670 520 629T623 511T659 330Q659 225 623 149T521 32T363 -10Q272 -10 206 31T103 149T67 330Q67 435 103 511T205 628T363 670ZM363 603Q295 603 246 570T169 476T142 330Q142 245 169
184T245 90T363 57Q431 57 480 90T557 184T584 330Q584 415 557 476T481 570T363 603Z" />
<glyph unicode="P" glyph-name="P" horiz-adv-x="586" d="M328 660Q424 660 482 607T541 461Q541 369 483 316T328 262H179V0H107V660H328ZM317 330Q393 330 429 363T465 461Q465 525 429 559T317 593H179V330H317Z" />
<glyph unicode="Q" glyph-name="Q" horiz-adv-x="726" d="M523 -195Q475 -195 433 -176T364 -111T338 13Q338 21 338 30T340 48L402 47Q401 38 400 31T399 15Q399 -42 416 -71T463 -111T525 -122Q558 -122 587 -113T634 -85L657 -152Q635 -172 596 -183T523 -195ZM363
670Q454 670 520 629T623 511T659 330Q659 225 623 149T521 32T363 -10Q272 -10 206 31T103 149T67 330Q67 435 103 511T205 628T363 670ZM363 603Q295 603 246 570T169 476T142 330Q142 245 169 184T245 90T363 57Q431 57 480 90T557 184T584 330Q584 415 557
476T481 570T363 603Z" />
<glyph unicode="R" glyph-name="R" horiz-adv-x="640" d="M348 660Q444 660 502 609T561 469Q561 410 534 371T459 309T347 278L340 277H179V0H107V660H348ZM346 345Q415 345 450 376T485 469Q485 531 450 562T346 593H179V345H346ZM390 331L597 0H512L330 291L390 331Z" />
<glyph unicode="S" glyph-name="S" horiz-adv-x="617" d="M308 670Q393 670 453 635T553 528L494 482Q461 547 414 575T301 603Q249 603 215 588T164 546T147 486Q147 448 170 421T260 377L394 346Q485 325 522 284T559 179Q559 123 529 81T444 14T316 -10Q247
-10 194 9T103 63T43 140L104 191Q122 151 151 121T223 74T319 57Q369 57 406 70T463 110T484 173Q484 208 462 234T380 274L236 308Q177 322 141 346T88 404T72 476Q72 529 100 573T182 643T308 670Z" />
<glyph unicode="T" glyph-name="T" horiz-adv-x="579" d="M549 660V593H325V0H253V593H29V660H549Z" />
<glyph unicode="U" glyph-name="U" horiz-adv-x="685" d="M591 660V245Q591 118 527 54T342 -10Q224 -10 159 54T94 245V660H166V262Q166 168 205 113T342 57Q440 57 479 112T519 262V660H591Z" />
<glyph unicode="V" glyph-name="V" horiz-adv-x="621" d="M594 660L352 0H270L27 660H104L272 189L311 66L350 189L517 660H594Z" />
<glyph unicode="W" glyph-name="W" horiz-adv-x="937" d="M228 0L34 660H109L273 66L429 660H511L667 64L831 660H902L709 0H621L503 437L469 585H468L434 437L317 0H228Z" />
<glyph unicode="X" glyph-name="X" horiz-adv-x="574" d="M544 0H461L285 279L107 0H23L247 337L43 660H127L292 397L457 660H536L330 340L544 0Z" />
<glyph unicode="Y" glyph-name="Y" horiz-adv-x="547" d="M536 660L309 258V0H237V258L11 660H95L218 434L273 332L329 434L451 660H536Z" />
<glyph unicode="Z" glyph-name="Z" horiz-adv-x="602" d="M117 41L105 67H551V0H53V64L474 619L486 593H62V660H538V596L117 41Z" />
<glyph unicode="[" glyph-name="bracketleft" horiz-adv-x="338" d="M308 667H153V-105H308V-168H86V730H308V667Z" />
<glyph unicode="\" glyph-name="backslash" horiz-adv-x="426" d="M29 730H97L397 -70H329L29 730Z" />
<glyph unicode="]" glyph-name="bracketright" horiz-adv-x="338" d="M30 -105H185V667H30V730H252V-168H30V-105Z" />
<glyph unicode="^" glyph-name="asciicircum" horiz-adv-x="557" d="M28 355L244 730H313L528 355H455L278 669L102 355H28Z" />
<glyph unicode="_" glyph-name="underscore" horiz-adv-x="534" d="M534 -97V-164H0V-97H534Z" />
<glyph unicode="`" glyph-name="grave" horiz-adv-x="506" d="M254 748L331 583H272L176 748H254Z" />
<glyph unicode="a" glyph-name="a" horiz-adv-x="524" d="M374 325Q374 382 344 414T259 447Q209 447 174 424T122 349L63 385Q83 442 134 476T261 510Q314 510 355 492T421 435T446 339V95Q446 54 484 54Q492 54 502 55T519 60L515 3Q507 -1 495 -4T466 -7Q440
-7 419 3T385 36T372 93V107L390 105Q379 66 352 41T289 3T217 -10Q152 -10 106 23T60 124Q60 178 94 214T196 265L387 305V245L230 211Q181 201 157 182T133 128Q133 94 157 74T228 53Q255 53 281 60T328 84T361 124T374 183V325Z" />
<glyph unicode="b" glyph-name="b" horiz-adv-x="604" d="M326 -10Q264 -10 217 24T152 114L161 127L155 0H92V730H164V382L155 395Q175 446 221 478T327 510Q387 510 436 479T515 390T545 250Q545 169 516 111T437 21T326 -10ZM318 53Q391 53 432 106T473 250Q473
340 433 393T319 447Q273 447 238 422T184 353T164 248Q164 189 183 145T238 77T318 53Z" />
<glyph unicode="c" glyph-name="c" horiz-adv-x="538" d="M288 510Q338 510 376 494T442 448T485 377L417 344Q403 394 370 420T286 447Q238 447 203 424T148 356T129 250Q129 189 148 145T203 77T287 53Q325 53 353 65T399 102T424 160L490 137Q475 91 447 58T379
8T287 -10Q220 -10 168 21T87 110T57 250Q57 331 87 389T169 479T288 510Z" />
<glyph unicode="d" glyph-name="d" horiz-adv-x="604" d="M277 -10Q217 -10 168 21T89 110T59 250Q59 333 90 391T172 479T283 510Q344 510 389 477T449 387L440 381V730H512V0H449L442 126L452 131Q445 86 419 55T356 7T277 -10ZM285 53Q331 53 366 77T420 148T440
256Q440 316 421 358T367 424T289 447Q215 447 173 394T131 250Q131 160 172 107T285 53Z" />
<glyph unicode="e" glyph-name="e" horiz-adv-x="554" d="M290 -10Q222 -10 170 21T87 110T57 250Q57 331 86 389T167 479T285 510Q352 510 399 480T471 398T496 280Q496 264 495 252T493 231H104V295H461L424 287Q424 338 407 373T358 428T284 447Q236 447 201
423T146 355T127 250Q127 189 147 145T203 77T289 53Q341 53 375 75T430 135L487 102Q469 68 441 43T374 4T290 -10Z" />
<glyph unicode="f" glyph-name="f" horiz-adv-x="366" d="M275 735Q301 735 322 729T356 711L337 653Q326 661 313 665T283 669Q241 669 218 647T195 577V500V476V0H123V584Q123 629 140 663T191 716T275 735ZM353 500V438H30V500H353Z" />
<glyph unicode="g" glyph-name="g" horiz-adv-x="510" d="M494 592L510 528Q509 528 507 528T503 528Q456 528 431 507T405 442L362 465Q362 504 379 532T424 576T489 592Q491 592 492 592T494 592ZM344 60Q414 60 453 28T492 -58Q492 -106 462 -141T379 -195T260
-215Q148 -215 92 -176T35 -79Q35 -39 62 -8T148 29L143 15Q110 24 87 46T64 108Q64 146 92 176T178 212L230 188H217Q171 184 150 165T128 119Q128 90 149 75T206 60H344ZM261 -156Q316 -156 353 -144T409 -111T428 -66Q428 -36 405 -19T327 -1H182Q148 -1 124
-19T100 -69Q100 -108 143 -132T261 -156ZM254 510Q312 510 356 489T425 430T450 343Q450 294 425 256T355 197T254 175Q160 175 109 222T57 343Q57 392 82 429T151 488T254 510ZM254 452Q201 452 166 422T130 343Q130 294 166 264T254 233Q306 233 341 263T377
343Q377 392 342 422T254 452Z" />
<glyph unicode="h" glyph-name="h" horiz-adv-x="595" d="M92 0V730H164V418Q188 465 230 487T325 510Q376 510 417 490T484 427T509 321V0H437V297Q437 380 402 413T315 447Q279 447 244 429T187 372T164 270V0H92Z" />
<glyph unicode="i" glyph-name="i" horiz-adv-x="256" d="M164 500V0H92V500H164ZM133 596Q106 596 90 612T73 656Q73 683 89 699T133 716Q160 716 176 700T193 656Q193 629 177 613T133 596Z" />
<glyph unicode="j" glyph-name="j" horiz-adv-x="238" d="M8 -215Q-20 -215 -43 -206T-82 -183L-67 -115Q-55 -128 -37 -136T4 -145Q35 -145 54 -122T74 -46V500H146V-53Q146 -113 126 -148T73 -199T8 -215ZM366 596Q339 596 323 612T306 656Q306 683 322 699T366
716Q393 716 409 700T426 656Q426 629 410 613T366 596Z" />
<glyph unicode="k" glyph-name="k" horiz-adv-x="538" d="M507 500L300 285L283 268L130 108V198L416 500H507ZM164 730V0H92V730H164ZM306 322L517 0H430L247 281L306 322Z" />
<glyph unicode="l" glyph-name="l" horiz-adv-x="279" d="M160 730V125Q160 89 171 71T213 53Q230 53 241 56T270 67L260 4Q247 -3 229 -6T193 -10Q133 -10 111 27T88 122V730H160Z" />
<glyph unicode="m" glyph-name="m" horiz-adv-x="937" d="M92 0V500H155L160 415Q185 463 229 486T322 510Q376 510 422 485T490 406Q505 441 533 464T597 498T665 510Q713 510 755 490T823 428T850 321V0H778V314Q778 384 743 415T657 447Q617 447 583 427T528
369T507 278V0H435V314Q435 384 400 415T314 447Q280 447 245 429T187 371T164 271V0H92Z" />
<glyph unicode="n" glyph-name="n" horiz-adv-x="595" d="M92 0V500H155L161 385L150 395Q171 455 219 482T325 510Q376 510 417 489T484 427T509 321V0H437V296Q437 379 402 413T315 447Q279 447 244 429T187 372T164 270V0H92Z" />
<glyph unicode="o" glyph-name="o" horiz-adv-x="578" d="M289 510Q357 510 409 479T491 390T521 250Q521 169 491 111T409 21T289 -10Q222 -10 170 21T87 110T57 250Q57 331 87 389T169 479T289 510ZM289 448Q240 448 204 424T149 356T129 250Q129 189 148 145T204
76T289 52Q339 52 374 76T429 144T449 250Q449 312 430 356T375 424T289 448Z" />
<glyph unicode="p" glyph-name="p" horiz-adv-x="604" d="M92 -210V500H155L161 373L152 386Q169 442 217 476T329 510Q389 510 438 479T516 390T545 250Q545 169 516 111T436 21T326 -10Q265 -10 220 22T155 105L164 119V-210H92ZM318 53Q390 53 431 106T473
250Q473 340 433 393T321 447Q275 447 240 423T184 354T164 250Q164 191 183 147T237 78T318 53Z" />
<glyph unicode="q" glyph-name="q" horiz-adv-x="604" d="M440 -210V140L452 131Q440 63 390 27T277 -10Q217 -10 168 21T89 110T59 250Q59 333 90 391T172 479T283 510Q345 510 393 475T453 378H442L449 500H512V-210H440ZM285 53Q331 53 366 78T420 148T440
253Q440 315 421 358T367 424T287 447Q214 447 173 394T131 250Q131 160 172 107T285 53Z" />
<glyph unicode="r" glyph-name="r" horiz-adv-x="382" d="M92 0V500H152L161 412Q179 459 217 484T308 510Q322 510 336 508T360 498L348 433Q338 438 326 440T291 443Q261 443 232 424T183 366T164 273V0H92Z" />
<glyph unicode="s" glyph-name="s" horiz-adv-x="503" d="M259 -10Q189 -10 131 21T43 109L103 153Q123 105 164 79T264 53Q316 53 346 75T377 133Q377 156 363 174T310 202L198 227Q128 243 98 277T68 362Q68 402 90 435T155 489T253 510Q323 510 371 481T443
397L384 358Q368 405 331 426T253 447Q218 447 192 437T153 408T139 365Q139 342 154 322T211 293L328 267Q395 252 422 221T449 143Q449 73 397 32T259 -10Z" />
<glyph unicode="t" glyph-name="t" horiz-adv-x="390" d="M195 641V137Q195 97 215 77T268 57Q296 57 315 67T351 94L375 34Q353 13 324 2T258 -10Q202 -10 163 21T123 124V621L195 641ZM367 500V438H29V500H367Z" />
<glyph unicode="u" glyph-name="u" horiz-adv-x="591" d="M262 -10Q215 -10 175 8T111 67T86 171V500H158V190Q158 121 187 87T280 53Q309 53 335 64T382 96T415 150T427 224V500H499V0H436L432 83Q416 52 392 31T335 0T262 -10Z" />
<glyph unicode="v" glyph-name="v" horiz-adv-x="497" d="M408 500H484L285 0H212L13 500H95L250 73L408 500Z" />
<glyph unicode="w" glyph-name="w" horiz-adv-x="811" d="M704 500H784L616 0H543L402 408L268 0H195L27 500H107L233 84L369 500H442L578 84L704 500Z" />
<glyph unicode="x" glyph-name="x" horiz-adv-x="507" d="M129 500L273 289L280 282L477 0H389L236 221L227 232L38 500H129ZM471 500L284 236L277 235L112 0H28L234 284L241 285L387 500H471Z" />
<glyph unicode="y" glyph-name="y" horiz-adv-x="494" d="M480 500L255 -86Q239 -128 220 -157T173 -200T105 -215Q74 -215 47 -206T0 -180L21 -118Q39 -136 60 -144T102 -152Q129 -152 151 -135T192 -68L218 1L169 121L18 500H99L225 160L252 77L285 169L403 500H480Z" />
<glyph unicode="z" glyph-name="z" horiz-adv-x="508" d="M55 0V55L310 377L368 440L286 438H56V500H448V445L195 126L136 60L226 62H457V0H55Z" />
<glyph unicode="{" glyph-name="braceleft" horiz-adv-x="340" d="M296 -187Q212 -187 175 -155T138 -64V147Q138 202 112 226T26 250V313Q85 313 111 337T138 416V627Q138 686 175 718T296 750V691Q247 691 226 677T205 632V410Q205 358 177 326T96 282Q149 270
177 238T205 154V-69Q205 -99 226 -113T296 -128V-187Z" />
<glyph unicode="|" glyph-name="bar" horiz-adv-x="234" d="M148 730V-168H86V730H148Z" />
<glyph unicode="}" glyph-name="braceright" horiz-adv-x="340" d="M44 750Q128 750 165 718T202 627V416Q202 361 228 337T314 313V250Q255 250 229 226T202 147V-64Q202 -122 165 -154T44 -187V-128Q93 -128 114 -114T135 -69V153Q135 206 163 238T244 281Q191
293 163 325T135 409V632Q135 662 114 676T44 691V750Z" />
<glyph unicode="~" glyph-name="asciitilde" horiz-adv-x="532" d="M489 385Q483 315 452 279T364 243Q330 243 305 254T260 280T220 306T176 317Q148 317 133 298T112 243H43Q49 313 80 349T170 385Q203 385 228 374T273 348T313 322T357 311Q384 311 399 331T421
385H489Z" />
<glyph unicode="&#xa0;" glyph-name="uni00A0" horiz-adv-x="334" />
<glyph unicode="&#xa1;" glyph-name="exclamdown" horiz-adv-x="253" d="M89 -160V135L99 297H154L164 135V-160H89ZM127 390Q100 390 84 406T67 450Q67 476 83 492T127 509Q153 509 169 493T186 450Q186 423 170 407T127 390Z" />
<glyph unicode="&#xa2;" glyph-name="cent" horiz-adv-x="545" d="M297 -10Q229 -10 177 21T95 110T65 250Q65 331 94 389T176 479T297 510Q347 510 385 494T450 448T493 377L426 344Q412 397 378 424T296 451Q224 451 178 399T132 250Q132 154 178 102T296 49Q331
49 359 61T406 99T434 160L498 138Q484 92 456 59T388 8T297 -10ZM261 -100V600H320V-100H261Z" />
<glyph unicode="&#xa3;" glyph-name="sterling" horiz-adv-x="596" d="M82 281V340H447V281H82ZM154 -9Q105 -9 77 14T49 74Q49 109 79 135T163 161Q201 161 229 150T281 122T325 89T370 61T425 49Q467 49 486 73T507 149H565Q565 71 531 31T435 -9Q399 -9 370
2T314 31T264 66T214 95T161 107Q137 107 125 98T113 74Q113 58 127 49T162 40Q201 40 220 57T246 103T252 161Q252 199 239 234T197 319Q176 356 165 382T150 431T145 477Q145 536 171 579T243 646T345 670Q421 670 468 631T535 515L473 481Q460 539 431 571T343
604Q283 604 247 572T211 477Q211 456 214 438T226 398T250 346Q277 294 292 250T308 165Q308 125 294 85T246 18T154 -9Z" />
<glyph unicode="&#xa4;" glyph-name="currency" horiz-adv-x="657" d="M329 536Q389 536 435 510T508 437T535 330Q535 270 509 223T436 149T329 122Q269 122 223 149T149 223T122 330Q122 390 149 436T222 509T329 536ZM329 471Q270 471 232 432T194 330Q194
267 232 227T329 187Q388 187 425 227T463 330Q463 392 426 431T329 471ZM115 588L233 473L186 427L69 542L115 588ZM185 233L230 187L115 69L69 115L185 233ZM470 230L588 115L542 69L425 184L470 230ZM542 588L588 542L473 425L427 471L542 588Z" />
<glyph unicode="&#xa5;" glyph-name="yen" horiz-adv-x="596" d="M266 0V110H79V160H266V239H79V294H208L250 290L35 660H118L255 402L297 312H299L341 403L478 660H560L346 290L388 294H517V239H329V160H517V110H329V0H266Z" />
<glyph unicode="&#xa6;" glyph-name="brokenbar" horiz-adv-x="234" d="M148 730V367H86V730H148ZM148 195V-168H86V195H148Z" />
<glyph unicode="&#xa7;" glyph-name="section" horiz-adv-x="554" d="M382 138L340 166Q377 168 403 178T443 208T457 255Q457 290 437 312T360 344L230 369Q157 383 125 420T92 512Q92 558 116 593T184 649T287 670Q351 670 401 646T481 573L427 530Q402 572
367 590T285 608Q225 608 192 583T158 517Q158 481 177 461T245 432L371 409Q429 399 462 380T509 333T524 271Q524 222 490 183T382 138ZM267 -110Q187 -110 137 -82T61 -10L115 36Q134 -3 172 -26T270 -50Q332 -50 366 -24T401 47Q401 74 384 94T326 122L180
153Q132 163 100 181T50 227T33 295Q33 327 48 353T92 396T158 418L188 395Q162 388 142 376T110 347T99 307Q99 276 121 251T201 215L339 188Q383 180 411 161T452 115T466 53Q466 7 442 -30T374 -88T267 -110Z" />
<glyph unicode="&#xa8;" glyph-name="dieresis" horiz-adv-x="506" d="M156 689Q180 689 194 675T209 637Q209 613 195 599T156 584Q133 584 119 598T104 637Q104 660 118 674T156 689ZM349 689Q373 689 387 675T402 637Q402 613 388 599T349 584Q326 584 312
598T297 637Q297 660 311 674T349 689Z" />
<glyph unicode="&#xa9;" glyph-name="copyright" horiz-adv-x="816" d="M408 -10Q306 -10 230 35T110 157T67 330Q67 427 110 503T229 625T408 670Q510 670 586 625T706 504T749 330Q749 234 706 157T587 35T408 -10ZM408 49Q490 49 552 86T649 187T684 330Q684
409 649 472T552 573T408 611Q326 611 264 574T166 473T131 330Q131 251 166 188T263 87T408 49ZM415 143Q333 143 285 192T237 328Q237 414 285 463T415 513Q472 513 510 488T567 417L514 391Q502 426 477 442T414 459Q360 459 329 425T298 328Q298 267 329 232T414
197Q454 197 481 215T521 269L571 249Q553 200 514 172T415 143Z" />
<glyph unicode="&#xaa;" glyph-name="ordfeminine" horiz-adv-x="371" d="M137 327Q88 327 59 351T30 415Q30 454 53 477T135 511L250 532V491L156 472Q119 465 106 453T92 420Q92 400 107 388T147 376Q167 376 188 383T225 408T240 459V546Q240 579 222 597T171
616Q140 616 115 601T75 551L30 577Q43 615 79 640T170 665Q231 665 266 636T301 548V404Q301 385 310 379T331 372Q347 372 355 376L350 336Q343 332 334 330T314 327Q284 327 266 344T248 397V414L258 405Q250 382 232 365T190 337T137 327ZM29 204V252H337V204H29Z"
/>
<glyph unicode="&#xab;" glyph-name="guillemotleft" horiz-adv-x="479" d="M257 461L127 265L257 69H179L50 265L179 461H257ZM427 461L297 265L427 69H349L220 265L349 461H427Z" />
<glyph unicode="&#xac;" glyph-name="logicalnot" horiz-adv-x="604" d="M543 319V137H471V319H543ZM543 350V283H61V350H543Z" />
<glyph unicode="&#xad;" glyph-name="uni00AD" horiz-adv-x="0" />
<glyph unicode="&#xae;" glyph-name="registered" horiz-adv-x="816" d="M408 -10Q306 -10 230 35T110 157T67 330Q67 427 110 503T229 625T408 670Q510 670 586 626T706 504T749 330Q749 234 706 157T587 35T408 -10ZM494 143L392 296L442 317L562 143H494ZM408
49Q490 49 552 86T649 187T684 330Q684 409 649 472T552 573T408 611Q326 611 264 574T166 473T131 330Q131 251 166 188T263 87T408 49ZM275 143V513H417Q479 513 517 482T555 397Q555 343 517 312T417 281H335V143H275ZM335 328H416Q454 328 474 345T494 397Q494
432 474 449T416 467H335V328Z" />
<glyph unicode="&#xaf;" glyph-name="overscore" horiz-adv-x="506" d="M415 658V597H91V658H415Z" />
<glyph unicode="&#xb0;" glyph-name="degree" horiz-adv-x="449" d="M224 348Q176 348 139 368T81 425T59 509Q59 556 80 592T139 649T224 670Q273 670 310 650T368 593T390 509Q390 462 369 426T310 369T224 348ZM224 406Q269 406 298 435T327 509Q327 553 298
582T224 611Q180 611 151 582T122 509Q122 464 151 435T224 406Z" />
<glyph unicode="&#xb1;" glyph-name="plusminus" horiz-adv-x="604" d="M336 638V148H269V638H336ZM543 427V359H61V427H543ZM543 67V0H61V67H543Z" />
<glyph unicode="&#xb2;" glyph-name="uni00B2" horiz-adv-x="353" d="M40 333V377Q63 394 87 413T131 448Q177 486 202 513T237 561T248 606Q248 639 228 661T171 683Q134 683 111 658T87 587L30 607Q34 667 72 701T174 735Q220 735 251 718T298 672T314 609Q314
580 299 550T254 489T178 424Q168 416 152 405T121 383V382Q130 383 149 384T179 385H323V333H40Z" />
<glyph unicode="&#xb3;" glyph-name="uni00B3" horiz-adv-x="348" d="M172 735Q235 735 269 705T303 627Q303 583 278 560T227 533V532Q258 531 285 508T312 440Q312 389 272 358T170 327Q112 327 75 351T24 422L83 450Q90 415 111 398T169 380Q204 380 225 398T247
448Q247 482 224 495T163 509Q159 509 156 509T147 508V555Q151 554 155 554T160 554Q197 554 217 570T237 618Q237 650 219 666T169 683Q139 683 119 667T94 621L35 642Q48 689 85 712T172 735Z" />
<glyph unicode="&#xb4;" glyph-name="acute" horiz-adv-x="600" d="M300 748H379L282 583H223L300 748Z" />
<glyph unicode="&#xb5;" glyph-name="uni00B5" horiz-adv-x="598" d="M92 -210V500H164V191Q164 120 196 87T287 53Q326 53 359 71T413 129T434 232V500H506V0H447L441 88Q418 41 375 16T282 -10Q245 -10 214 4T162 48H164V-210H92Z" />
<glyph unicode="&#xb6;" glyph-name="paragraph" horiz-adv-x="639" d="M290 -100V199Q215 199 159 228T72 309T40 429Q40 499 73 551T167 631T308 660H550V-100H486V600H356V-100H290ZM290 259V600Q232 600 192 579T130 520T108 429Q108 377 129 339T191 280T290 259Z" />
<glyph unicode="&#xb7;" glyph-name="middot" horiz-adv-x="222" d="M121 296Q94 296 78 312T61 355Q61 382 77 398T121 415Q148 415 164 399T181 355Q181 329 165 313T121 296Z" />
<glyph unicode="&#xb8;" glyph-name="cedilla" horiz-adv-x="513" d="M215 4L255 26Q313 7 337 -25T362 -101Q362 -148 329 -180T245 -213Q214 -213 191 -205T150 -183L168 -131Q182 -141 198 -148T237 -156Q266 -156 284 -138T302 -85Q302 -58 283 -38T215 4Z" />
<glyph unicode="&#xb9;" glyph-name="uni00B9" horiz-adv-x="229" d="M120 730H174V333H112V591Q112 608 112 626T114 663Q93 642 67 626T11 602V657Q29 661 50 672T91 698T120 730Z" />
<glyph unicode="&#xba;" glyph-name="ordmasculine" horiz-adv-x="351" d="M175 327Q108 327 67 372T26 496Q26 576 67 620T175 665Q243 665 284 621T325 496Q325 417 284 372T175 327ZM37 204V252H314V204H37ZM175 377Q220 377 241 408T263 496Q263 553 242 584T175
616Q131 616 110 585T88 496Q88 439 109 408T175 377Z" />
<glyph unicode="&#xbb;" glyph-name="guillemotright" horiz-adv-x="479" d="M222 69L352 265L222 461H300L429 265L300 69H222ZM52 69L182 265L52 461H130L259 265L130 69H52Z" />
<glyph unicode="&#xbc;" glyph-name="onequarter" horiz-adv-x="740" d="M120 921H174V524H112V782Q112 799 112 817T114 854Q93 833 67 817T11 793V848Q29 852 50 863T91 889T120 921ZM77 0L535 660H606L147 0H77ZM719 143V98H650V-4H596V98H404V132L580 393H650V143H719ZM465
143H596V269Q596 284 597 302T599 340H596Q591 330 582 314T565 287L465 143Z" />
<glyph unicode="&#xbd;" glyph-name="onehalf" horiz-adv-x="806" d="M120 921H174V524H112V782Q112 799 112 817T114 854Q93 833 67 817T11 793V848Q29 852 50 863T91 889T120 921ZM77 0L535 660H606L147 0H77ZM493 -4V40Q516 57 540 76T584 111Q630 149 655
176T690 224T701 269Q701 302 681 324T624 346Q587 346 564 321T540 250L483 270Q487 330 525 364T627 398Q673 398 704 381T751 335T767 272Q767 243 752 213T707 152T631 87Q621 79 605 68T574 46V45Q583 46 602 47T632 48H776V-4H493Z" />
<glyph unicode="&#xbe;" glyph-name="threequarters" horiz-adv-x="859" d="M172 926Q235 926 269 896T303 818Q303 774 278 751T227 724V723Q258 722 285 699T312 631Q312 580 272 549T170 518Q112 518 75 542T24 613L83 641Q90 606 111 589T169 571Q204 571
225 589T247 639Q247 673 224 686T163 700Q159 700 156 700T147 699V746Q151 745 155 745T160 745Q197 745 217 761T237 809Q237 841 219 857T169 874Q139 874 119 858T94 812L35 833Q48 880 85 903T172 926ZM196 0L654 660H725L266 0H196ZM838 143V98H769V-4H715V98H523V132L699
393H769V143H838ZM584 143H715V269Q715 284 716 302T718 340H715Q710 330 701 314T684 287L584 143Z" />
<glyph unicode="&#xbf;" glyph-name="questiondown" horiz-adv-x="515" d="M303 298V149Q234 137 195 120T140 77T124 15Q124 -22 139 -48T185 -89T261 -104Q325 -104 365 -67T413 35L477 -1Q467 -52 438 -90T362 -150T256 -171Q194 -171 147 -150T74 -89T48 4Q48
62 71 100T136 160T229 188V298H303ZM256 508Q283 508 299 492T316 449Q316 422 300 406T256 389Q229 389 213 405T196 449Q196 475 212 491T256 508Z" />
<glyph unicode="&#xc0;" glyph-name="Agrave" horiz-adv-x="633" d="M609 0H532L462 189H170L100 0H24L274 660H360L609 0ZM195 257H437L316 590L195 257ZM292 901L360 743H302L217 901H292Z" />
<glyph unicode="&#xc1;" glyph-name="Aacute" horiz-adv-x="633" d="M609 0H532L462 189H170L100 0H24L274 660H360L609 0ZM195 257H437L316 590L195 257ZM345 901H421L336 743H278L345 901Z" />
<glyph unicode="&#xc2;" glyph-name="Acircumflex" horiz-adv-x="633" d="M609 0H532L462 189H170L100 0H24L274 660H360L609 0ZM195 257H437L316 590L195 257ZM466 743H399L316 853L233 743H166L276 900H356L466 743Z" />
<glyph unicode="&#xc3;" glyph-name="Atilde" horiz-adv-x="633" d="M609 0H532L462 189H170L100 0H24L274 660H360L609 0ZM195 257H437L316 590L195 257ZM493 873Q488 810 462 778T385 745Q357 745 338 755T305 779T277 802T246 813Q223 813 211 795T194 744H137Q143
807 169 839T247 872Q274 872 293 862T326 838T354 815T384 804Q407 804 419 822T436 873H493Z" />
<glyph unicode="&#xc4;" glyph-name="Adieresis" horiz-adv-x="633" d="M609 0H532L462 189H170L100 0H24L274 660H360L609 0ZM195 257H437L316 590L195 257ZM219 849Q243 849 257 835T272 797Q272 773 258 759T219 744Q196 744 182 758T167 797Q167 820 181 834T219
849ZM412 849Q436 849 450 835T465 797Q465 773 451 759T412 744Q389 744 375 758T360 797Q360 820 374 834T412 849Z" />
<glyph unicode="&#xc5;" glyph-name="Aring" horiz-adv-x="633" d="M609 0H532L462 189H170L100 0H24L274 660H360L609 0ZM195 257H437L316 590L195 257ZM314 842Q368 842 401 811T434 729Q434 678 401 647T314 615Q261 615 228 646T194 729Q194 779 227 810T314
842ZM314 798Q284 798 264 779T244 729Q244 700 264 681T314 661Q345 661 365 680T385 729Q385 759 365 778T314 798Z" />
<glyph unicode="&#xc6;" glyph-name="AE" horiz-adv-x="909" d="M502 67H860V0H430V218H203L82 0H4L376 660H846V593H502V368H765V301H502V67ZM241 286H430V593H411L241 286Z" />
<glyph unicode="&#xc7;" glyph-name="Ccedilla" horiz-adv-x="663" d="M618 169Q588 84 521 37T361 -10Q272 -10 206 31T103 149T67 330Q67 434 103 510T205 628T359 670Q422 670 470 652T553 600T607 514L537 480Q516 541 474 572T364 603Q298 603 248 571T170
477T142 330Q142 246 168 185T244 90T361 57Q429 57 477 92T546 196L618 169ZM305 4L345 26Q403 7 427 -25T452 -101Q452 -148 419 -180T335 -213Q304 -213 281 -205T240 -183L258 -131Q272 -141 288 -148T327 -156Q356 -156 374 -138T392 -85Q392 -58 373 -38T305
4Z" />
<glyph unicode="&#xc8;" glyph-name="Egrave" horiz-adv-x="613" d="M107 0V660H550V593H179V369H469V301H179V67H564V0H107ZM299 901L367 743H309L224 901H299Z" />
<glyph unicode="&#xc9;" glyph-name="Eacute" horiz-adv-x="613" d="M107 0V660H550V593H179V369H469V301H179V67H564V0H107ZM366 901H442L357 743H299L366 901Z" />
<glyph unicode="&#xca;" glyph-name="Ecircumflex" horiz-adv-x="613" d="M107 0V660H550V593H179V369H469V301H179V67H564V0H107ZM478 743H411L328 853L245 743H178L288 900H368L478 743Z" />
<glyph unicode="&#xcb;" glyph-name="Edieresis" horiz-adv-x="613" d="M107 0V660H550V593H179V369H469V301H179V67H564V0H107ZM231 849Q255 849 269 835T284 797Q284 773 270 759T231 744Q208 744 194 758T179 797Q179 820 193 834T231 849ZM424 849Q448 849
462 835T477 797Q477 773 463 759T424 744Q401 744 387 758T372 797Q372 820 386 834T424 849Z" />
<glyph unicode="&#xcc;" glyph-name="Igrave" horiz-adv-x="286" d="M179 660V0H107V660H179ZM105 901L173 743H115L30 901H105Z" />
<glyph unicode="&#xcd;" glyph-name="Iacute" horiz-adv-x="286" d="M179 660V0H107V660H179ZM181 901H257L172 743H114L181 901Z" />
<glyph unicode="&#xce;" glyph-name="Icircumflex" horiz-adv-x="286" d="M179 660V0H107V660H179ZM293 743H226L143 853L60 743H-7L103 900H183L293 743Z" />
<glyph unicode="&#xcf;" glyph-name="Idieresis" horiz-adv-x="286" d="M60 849Q84 849 98 835T113 797Q113 773 99 759T60 744Q37 744 23 758T8 797Q8 820 22 834T60 849ZM226 849Q249 849 263 835T278 797Q278 773 264 759T226 744Q202 744 188 758T173 797Q173
820 187 834T226 849ZM179 660V0H107V660H179Z" />
<glyph unicode="&#xd0;" glyph-name="Eth" horiz-adv-x="716" d="M23 300V367H392V300H23ZM313 660Q463 660 547 575T632 331Q632 171 548 86T313 0H107V660H313ZM319 67Q432 67 494 137T556 331Q556 414 528 472T447 562T319 593H179V67H319Z" />
<glyph unicode="&#xd1;" glyph-name="Ntilde" horiz-adv-x="711" d="M604 660V0H516L234 462L173 576H172L175 481V0H107V660H195L476 199L538 83H539L536 179V660H604ZM537 873Q532 810 506 778T429 745Q401 745 382 755T349 779T321 802T290 813Q267 813 255
795T238 744H181Q187 807 213 839T291 872Q318 872 337 862T370 838T398 815T428 804Q451 804 463 822T480 873H537Z" />
<glyph unicode="&#xd2;" glyph-name="Ograve" horiz-adv-x="726" d="M363 670Q454 670 520 629T623 511T659 330Q659 225 623 149T521 32T363 -10Q272 -10 206 31T103 149T67 330Q67 435 103 511T205 628T363 670ZM363 603Q295 603 246 570T169 476T142 330Q142
245 169 184T245 90T363 57Q431 57 480 90T557 184T584 330Q584 415 557 476T481 570T363 603ZM334 901L402 743H344L259 901H334Z" />
<glyph unicode="&#xd3;" glyph-name="Oacute" horiz-adv-x="726" d="M363 670Q454 670 520 629T623 511T659 330Q659 225 623 149T521 32T363 -10Q272 -10 206 31T103 149T67 330Q67 435 103 511T205 628T363 670ZM363 603Q295 603 246 570T169 476T142 330Q142
245 169 184T245 90T363 57Q431 57 480 90T557 184T584 330Q584 415 557 476T481 570T363 603ZM392 901H468L383 743H325L392 901Z" />
<glyph unicode="&#xd4;" glyph-name="Ocircumflex" horiz-adv-x="726" d="M363 670Q454 670 520 629T623 511T659 330Q659 225 623 149T521 32T363 -10Q272 -10 206 31T103 149T67 330Q67 435 103 511T205 628T363 670ZM363 603Q295 603 246 570T169 476T142 330Q142
245 169 184T245 90T363 57Q431 57 480 90T557 184T584 330Q584 415 557 476T481 570T363 603ZM513 743H446L363 853L280 743H213L323 900H403L513 743Z" />
<glyph unicode="&#xd5;" glyph-name="Otilde" horiz-adv-x="726" d="M363 670Q454 670 520 629T623 511T659 330Q659 225 623 149T521 32T363 -10Q272 -10 206 31T103 149T67 330Q67 435 103 511T205 628T363 670ZM363 603Q295 603 246 570T169 476T142 330Q142
245 169 184T245 90T363 57Q431 57 480 90T557 184T584 330Q584 415 557 476T481 570T363 603ZM540 873Q535 810 509 778T432 745Q404 745 385 755T352 779T324 802T293 813Q270 813 258 795T241 744H184Q190 807 216 839T294 872Q321 872 340 862T373 838T401
815T431 804Q454 804 466 822T483 873H540Z" />
<glyph unicode="&#xd6;" glyph-name="Odieresis" horiz-adv-x="726" d="M363 670Q454 670 520 629T623 511T659 330Q659 225 623 149T521 32T363 -10Q272 -10 206 31T103 149T67 330Q67 435 103 511T205 628T363 670ZM363 603Q295 603 246 570T169 476T142 330Q142
245 169 184T245 90T363 57Q431 57 480 90T557 184T584 330Q584 415 557 476T481 570T363 603ZM266 849Q290 849 304 835T319 797Q319 773 305 759T266 744Q243 744 229 758T214 797Q214 820 228 834T266 849ZM459 849Q483 849 497 835T512 797Q512 773 498 759T459
744Q436 744 422 758T407 797Q407 820 421 834T459 849Z" />
<glyph unicode="&#xd7;" glyph-name="multiply" horiz-adv-x="604" d="M469 102L517 150L134 532L86 484L469 102ZM134 102L517 484L469 532L86 150L134 102Z" />
<glyph unicode="&#xd8;" glyph-name="Oslash" horiz-adv-x="726" d="M222 63L180 96L521 582L563 550L222 63ZM88 -36L180 96L222 63L152 -36H88ZM563 550L521 582L592 684H657L563 550ZM363 670Q454 670 520 629T623 511T659 330Q659 225 623 149T521 32T363
-10Q272 -10 206 31T103 149T67 330Q67 435 103 511T205 628T363 670ZM363 603Q295 603 246 570T169 476T142 330Q142 245 169 184T245 90T363 57Q431 57 480 90T557 184T584 330Q584 415 557 476T481 570T363 603Z" />
<glyph unicode="&#xd9;" glyph-name="Ugrave" horiz-adv-x="685" d="M591 660V245Q591 118 527 54T342 -10Q224 -10 159 54T94 245V660H166V262Q166 168 205 113T342 57Q440 57 479 112T519 262V660H591ZM329 879L397 721H339L254 879H329Z" />
<glyph unicode="&#xda;" glyph-name="Uacute" horiz-adv-x="685" d="M591 660V245Q591 118 527 54T342 -10Q224 -10 159 54T94 245V660H166V262Q166 168 205 113T342 57Q440 57 479 112T519 262V660H591ZM371 874H447L362 716H304L371 874Z" />
<glyph unicode="&#xdb;" glyph-name="Ucircumflex" horiz-adv-x="685" d="M591 660V245Q591 118 527 54T342 -10Q224 -10 159 54T94 245V660H166V262Q166 168 205 113T342 57Q440 57 479 112T519 262V660H591ZM492 716H425L342 826L259 716H192L302 873H382L492 716Z" />
<glyph unicode="&#xdc;" glyph-name="Udieresis" horiz-adv-x="685" d="M591 660V245Q591 118 527 54T342 -10Q224 -10 159 54T94 245V660H166V262Q166 168 205 113T342 57Q440 57 479 112T519 262V660H591ZM245 822Q269 822 283 808T298 770Q298 746 284 732T245
717Q222 717 208 731T193 770Q193 793 207 807T245 822ZM438 822Q462 822 476 808T491 770Q491 746 477 732T438 717Q415 717 401 731T386 770Q386 793 400 807T438 822Z" />
<glyph unicode="&#xdd;" glyph-name="Yacute" horiz-adv-x="547" d="M536 660L309 258V0H237V258L11 660H95L218 434L273 332L329 434L451 660H536ZM302 879H378L293 721H235L302 879Z" />
<glyph unicode="&#xde;" glyph-name="Thorn" horiz-adv-x="602" d="M316 540Q432 540 490 488T549 337Q549 240 491 188T316 135H143V202H323Q474 202 474 337Q474 406 437 439T323 473H143V540H316ZM179 660V0H107V660H179Z" />
<glyph unicode="&#xdf;" glyph-name="germandbls" horiz-adv-x="591" d="M366 386Q427 386 464 359T518 290T535 202Q535 145 515 97T453 19T349 -10Q305 -10 273 1T227 24L247 85Q265 72 287 64T346 56Q402 56 434 97T466 203Q466 277 428 314T315 352H261L262
416H308Q369 416 403 454T437 548Q437 610 401 639T309 668Q251 668 220 644T176 577T164 477V0H92V499Q92 568 113 621T183 704T315 735Q380 735 423 711T488 647T510 562Q510 521 494 482T446 417T366 388V386Z" />
<glyph unicode="&#xe0;" glyph-name="agrave" horiz-adv-x="524" d="M374 325Q374 382 344 414T259 447Q209 447 174 424T122 349L63 385Q83 442 134 476T261 510Q314 510 355 492T421 435T446 339V95Q446 54 484 54Q492 54 502 55T519 60L515 3Q507 -1 495 -4T466
-7Q440 -7 419 3T385 36T372 93V107L390 105Q379 66 352 41T289 3T217 -10Q152 -10 106 23T60 124Q60 178 94 214T196 265L387 305V245L230 211Q181 201 157 182T133 128Q133 94 157 74T228 53Q255 53 281 60T328 84T361 124T374 183V325ZM225 748L302 583H243L147
748H225Z" />
<glyph unicode="&#xe1;" glyph-name="aacute" horiz-adv-x="524" d="M374 325Q374 382 344 414T259 447Q209 447 174 424T122 349L63 385Q83 442 134 476T261 510Q314 510 355 492T421 435T446 339V95Q446 54 484 54Q492 54 502 55T519 60L515 3Q507 -1 495 -4T466
-7Q440 -7 419 3T385 36T372 93V107L390 105Q379 66 352 41T289 3T217 -10Q152 -10 106 23T60 124Q60 178 94 214T196 265L387 305V245L230 211Q181 201 157 182T133 128Q133 94 157 74T228 53Q255 53 281 60T328 84T361 124T374 183V325ZM297 748H376L279 583H220L297
748Z" />
<glyph unicode="&#xe2;" glyph-name="acircumflex" horiz-adv-x="524" d="M374 325Q374 382 344 414T259 447Q209 447 174 424T122 349L63 385Q83 442 134 476T261 510Q314 510 355 492T421 435T446 339V95Q446 54 484 54Q492 54 502 55T519 60L515 3Q507 -1 495
-4T466 -7Q440 -7 419 3T385 36T372 93V107L390 105Q379 66 352 41T289 3T217 -10Q152 -10 106 23T60 124Q60 178 94 214T196 265L387 305V245L230 211Q181 201 157 182T133 128Q133 94 157 74T228 53Q255 53 281 60T328 84T361 124T374 183V325ZM418 577H352L264
694L176 577H110L223 741H305L418 577Z" />
<glyph unicode="&#xe3;" glyph-name="atilde" horiz-adv-x="524" d="M374 325Q374 382 344 414T259 447Q209 447 174 424T122 349L63 385Q83 442 134 476T261 510Q314 510 355 492T421 435T446 339V95Q446 54 484 54Q492 54 502 55T519 60L515 3Q507 -1 495 -4T466
-7Q440 -7 419 3T385 36T372 93V107L390 105Q379 66 352 41T289 3T217 -10Q152 -10 106 23T60 124Q60 178 94 214T196 265L387 305V245L230 211Q181 201 157 182T133 128Q133 94 157 74T228 53Q255 53 281 60T328 84T361 124T374 183V325ZM441 713Q436 650 410
618T333 585Q305 585 286 595T253 619T225 642T194 653Q171 653 159 635T142 584H85Q91 647 117 679T195 712Q222 712 241 702T274 678T302 655T332 644Q355 644 367 662T384 713H441Z" />
<glyph unicode="&#xe4;" glyph-name="adieresis" horiz-adv-x="524" d="M374 325Q374 382 344 414T259 447Q209 447 174 424T122 349L63 385Q83 442 134 476T261 510Q314 510 355 492T421 435T446 339V95Q446 54 484 54Q492 54 502 55T519 60L515 3Q507 -1 495
-4T466 -7Q440 -7 419 3T385 36T372 93V107L390 105Q379 66 352 41T289 3T217 -10Q152 -10 106 23T60 124Q60 178 94 214T196 265L387 305V245L230 211Q181 201 157 182T133 128Q133 94 157 74T228 53Q255 53 281 60T328 84T361 124T374 183V325ZM167 689Q191 689
205 675T220 637Q220 613 206 599T167 584Q144 584 130 598T115 637Q115 660 129 674T167 689ZM360 689Q384 689 398 675T413 637Q413 613 399 599T360 584Q337 584 323 598T308 637Q308 660 322 674T360 689Z" />
<glyph unicode="&#xe5;" glyph-name="aring" horiz-adv-x="524" d="M374 325Q374 382 344 414T259 447Q209 447 174 424T122 349L63 385Q83 442 134 476T261 510Q314 510 355 492T421 435T446 339V95Q446 54 484 54Q492 54 502 55T519 60L515 3Q507 -1 495 -4T466
-7Q440 -7 419 3T385 36T372 93V107L390 105Q379 66 352 41T289 3T217 -10Q152 -10 106 23T60 124Q60 178 94 214T196 265L387 305V245L230 211Q181 201 157 182T133 128Q133 94 157 74T228 53Q255 53 281 60T328 84T361 124T374 183V325ZM261 802Q315 802 348
771T381 689Q381 638 348 607T261 575Q208 575 175 606T141 689Q141 739 174 770T261 802ZM261 758Q231 758 211 739T191 689Q191 660 211 641T261 621Q292 621 312 640T332 689Q332 719 312 738T261 758Z" />
<glyph unicode="&#xe6;" glyph-name="ae" horiz-adv-x="861" d="M220 -10Q153 -10 107 23T60 124Q60 177 93 214T192 264L373 302V325Q373 383 342 415T258 447Q210 447 175 423T122 349L63 385Q78 423 105 451T171 494T257 510Q321 510 368 481T431 386L409 389Q426
427 454 454T520 495T598 510Q662 510 707 480T778 399T803 282Q803 266 802 254T799 233H449V230Q449 147 492 100T602 53Q649 53 683 75T737 135L794 102Q767 50 718 20T604 -10Q531 -10 477 27T399 135L421 141Q417 105 399 77T352 30T289 0T220 -10ZM228 53Q265
53 298 67T352 110T373 184V241L230 211Q181 201 157 182T133 128Q133 94 157 74T228 53ZM448 297H731Q730 344 713 377T666 429T597 447Q538 447 498 408T448 297Z" />
<glyph unicode="&#xe7;" glyph-name="ccedilla" horiz-adv-x="538" d="M288 510Q338 510 376 494T442 448T485 377L417 344Q403 394 370 420T286 447Q238 447 203 424T148 356T129 250Q129 189 148 145T203 77T287 53Q325 53 353 65T399 102T424 160L490 137Q475
91 447 58T379 8T287 -10Q220 -10 168 21T87 110T57 250Q57 331 87 389T169 479T288 510ZM233 4L273 26Q331 7 355 -25T380 -101Q380 -148 347 -180T263 -213Q232 -213 209 -205T168 -183L186 -131Q200 -141 216 -148T255 -156Q284 -156 302 -138T320 -85Q320 -58
301 -38T233 4Z" />
<glyph unicode="&#xe8;" glyph-name="egrave" horiz-adv-x="554" d="M290 -10Q222 -10 170 21T87 110T57 250Q57 331 86 389T167 479T285 510Q352 510 399 480T471 398T496 280Q496 264 495 252T493 231H104V295H461L424 287Q424 338 407 373T358 428T284 447Q236
447 201 423T146 355T127 250Q127 189 147 145T203 77T289 53Q341 53 375 75T430 135L487 102Q469 68 441 43T374 4T290 -10ZM241 748L318 583H259L163 748H241Z" />
<glyph unicode="&#xe9;" glyph-name="eacute" horiz-adv-x="554" d="M290 -10Q222 -10 170 21T87 110T57 250Q57 331 86 389T167 479T285 510Q352 510 399 480T471 398T496 280Q496 264 495 252T493 231H104V295H461L424 287Q424 338 407 373T358 428T284 447Q236
447 201 423T146 355T127 250Q127 189 147 145T203 77T289 53Q341 53 375 75T430 135L487 102Q469 68 441 43T374 4T290 -10ZM313 748H392L295 583H236L313 748Z" />
<glyph unicode="&#xea;" glyph-name="ecircumflex" horiz-adv-x="554" d="M290 -10Q222 -10 170 21T87 110T57 250Q57 331 86 389T167 479T285 510Q352 510 399 480T471 398T496 280Q496 264 495 252T493 231H104V295H461L424 287Q424 338 407 373T358 428T284
447Q236 447 201 423T146 355T127 250Q127 189 147 145T203 77T289 53Q341 53 375 75T430 135L487 102Q469 68 441 43T374 4T290 -10ZM434 577H368L280 694L192 577H126L239 741H321L434 577Z" />
<glyph unicode="&#xeb;" glyph-name="edieresis" horiz-adv-x="554" d="M290 -10Q222 -10 170 21T87 110T57 250Q57 331 86 389T167 479T285 510Q352 510 399 480T471 398T496 280Q496 264 495 252T493 231H104V295H461L424 287Q424 338 407 373T358 428T284 447Q236
447 201 423T146 355T127 250Q127 189 147 145T203 77T289 53Q341 53 375 75T430 135L487 102Q469 68 441 43T374 4T290 -10ZM183 689Q207 689 221 675T236 637Q236 613 222 599T183 584Q160 584 146 598T131 637Q131 660 145 674T183 689ZM376 689Q400 689 414
675T429 637Q429 613 415 599T376 584Q353 584 339 598T324 637Q324 660 338 674T376 689Z" />
<glyph unicode="&#xec;" glyph-name="igrave" horiz-adv-x="256" d="M164 500V0H92V500H164ZM89 748L166 583H107L11 748H89Z" />
<glyph unicode="&#xed;" glyph-name="iacute" horiz-adv-x="256" d="M164 500V0H92V500H164ZM161 748H240L143 583H84L161 748Z" />
<glyph unicode="&#xee;" glyph-name="icircumflex" horiz-adv-x="256" d="M164 500V0H92V500H164ZM282 577H216L128 694L40 577H-26L87 741H169L282 577Z" />
<glyph unicode="&#xef;" glyph-name="idieresis" horiz-adv-x="256" d="M204 584Q180 584 166 598T151 637Q151 660 165 674T204 689Q228 689 242 675T257 637Q257 613 243 599T204 584ZM52 584Q28 584 14 598T-1 637Q-1 660 13 674T52 689Q76 689 90 675T105
637Q105 613 91 599T52 584ZM164 500V0H92V500H164Z" />
<glyph unicode="&#xf0;" glyph-name="eth" horiz-adv-x="599" d="M289 -10Q219 -10 168 20T89 105T61 238Q61 315 90 370T171 455T286 485Q349 485 393 461T462 392L454 385Q441 464 410 527T328 640T204 730H302Q376 686 425 623T500 477T526 287Q526 199 500
132T422 28T289 -10ZM292 53Q345 53 381 79T436 148T455 241Q455 297 436 337T381 400T296 422Q246 422 210 400T155 336T135 238Q135 151 177 102T292 53ZM205 538L191 593L382 636L413 593L205 538ZM414 593L383 636L519 675L533 621L414 593Z" />
<glyph unicode="&#xf1;" glyph-name="ntilde" horiz-adv-x="595" d="M92 0V500H155L161 385L150 395Q171 455 219 482T325 510Q376 510 417 489T484 427T509 321V0H437V296Q437 379 402 413T315 447Q279 447 244 429T187 372T164 270V0H92ZM483 713Q478 650 452
618T375 585Q347 585 328 595T295 619T267 642T236 653Q213 653 201 635T184 584H127Q133 647 159 679T237 712Q264 712 283 702T316 678T344 655T374 644Q397 644 409 662T426 713H483Z" />
<glyph unicode="&#xf2;" glyph-name="ograve" horiz-adv-x="578" d="M289 510Q357 510 409 479T491 390T521 250Q521 169 491 111T409 21T289 -10Q222 -10 170 21T87 110T57 250Q57 331 87 389T169 479T289 510ZM289 448Q240 448 204 424T149 356T129 250Q129
189 148 145T204 76T289 52Q339 52 374 76T429 144T449 250Q449 312 430 356T375 424T289 448ZM250 748L327 583H268L172 748H250Z" />
<glyph unicode="&#xf3;" glyph-name="oacute" horiz-adv-x="578" d="M289 510Q357 510 409 479T491 390T521 250Q521 169 491 111T409 21T289 -10Q222 -10 170 21T87 110T57 250Q57 331 87 389T169 479T289 510ZM289 448Q240 448 204 424T149 356T129 250Q129
189 148 145T204 76T289 52Q339 52 374 76T429 144T449 250Q449 312 430 356T375 424T289 448ZM322 748H401L304 583H245L322 748Z" />
<glyph unicode="&#xf4;" glyph-name="ocircumflex" horiz-adv-x="578" d="M289 510Q357 510 409 479T491 390T521 250Q521 169 491 111T409 21T289 -10Q222 -10 170 21T87 110T57 250Q57 331 87 389T169 479T289 510ZM289 448Q240 448 204 424T149 356T129 250Q129
189 148 145T204 76T289 52Q339 52 374 76T429 144T449 250Q449 312 430 356T375 424T289 448ZM443 577H377L289 694L201 577H135L248 741H330L443 577Z" />
<glyph unicode="&#xf5;" glyph-name="otilde" horiz-adv-x="578" d="M289 510Q357 510 409 479T491 390T521 250Q521 169 491 111T409 21T289 -10Q222 -10 170 21T87 110T57 250Q57 331 87 389T169 479T289 510ZM289 448Q240 448 204 424T149 356T129 250Q129
189 148 145T204 76T289 52Q339 52 374 76T429 144T449 250Q449 312 430 356T375 424T289 448ZM466 713Q461 650 435 618T358 585Q330 585 311 595T278 619T250 642T219 653Q196 653 184 635T167 584H110Q116 647 142 679T220 712Q247 712 266 702T299 678T327
655T357 644Q380 644 392 662T409 713H466Z" />
<glyph unicode="&#xf6;" glyph-name="odieresis" horiz-adv-x="578" d="M289 510Q357 510 409 479T491 390T521 250Q521 169 491 111T409 21T289 -10Q222 -10 170 21T87 110T57 250Q57 331 87 389T169 479T289 510ZM289 448Q240 448 204 424T149 356T129 250Q129
189 148 145T204 76T289 52Q339 52 374 76T429 144T449 250Q449 312 430 356T375 424T289 448ZM192 689Q216 689 230 675T245 637Q245 613 231 599T192 584Q169 584 155 598T140 637Q140 660 154 674T192 689ZM385 689Q409 689 423 675T438 637Q438 613 424 599T385
584Q362 584 348 598T333 637Q333 660 347 674T385 689Z" />
<glyph unicode="&#xf7;" glyph-name="divide" horiz-adv-x="604" d="M543 350V283H61V350H543ZM312 62Q285 62 269 78T252 121Q252 148 268 164T312 181Q339 181 355 165T372 121Q372 95 356 79T312 62ZM312 451Q285 451 269 467T252 510Q252 537 268 553T312
570Q339 570 355 554T372 510Q372 484 356 468T312 451Z" />
<glyph unicode="&#xf8;" glyph-name="oslash" horiz-adv-x="578" d="M289 510Q357 510 409 479T491 390T521 250Q521 169 491 111T409 21T289 -10Q222 -10 170 21T87 110T57 250Q57 331 87 389T169 479T289 510ZM289 448Q240 448 204 424T149 356T129 250Q129
189 148 145T204 76T289 52Q339 52 374 76T429 144T449 250Q449 312 430 356T375 424T289 448ZM301 -30L727 530H788L362 -30H301Z" />
<glyph unicode="&#xf9;" glyph-name="ugrave" horiz-adv-x="591" d="M262 -10Q215 -10 175 8T111 67T86 171V500H158V190Q158 121 187 87T280 53Q309 53 335 64T382 96T415 150T427 224V500H499V0H436L432 83Q416 52 392 31T335 0T262 -10ZM254 737L331 572H272L176
737H254Z" />
<glyph unicode="&#xfa;" glyph-name="uacute" horiz-adv-x="591" d="M262 -10Q215 -10 175 8T111 67T86 171V500H158V190Q158 121 187 87T280 53Q309 53 335 64T382 96T415 150T427 224V500H499V0H436L432 83Q416 52 392 31T335 0T262 -10ZM326 737H405L308 572H249L326
737Z" />
<glyph unicode="&#xfb;" glyph-name="ucircumflex" horiz-adv-x="591" d="M262 -10Q215 -10 175 8T111 67T86 171V500H158V190Q158 121 187 87T280 53Q309 53 335 64T382 96T415 150T427 224V500H499V0H436L432 83Q416 52 392 31T335 0T262 -10ZM447 566H381L293
683L205 566H139L252 730H334L447 566Z" />
<glyph unicode="&#xfc;" glyph-name="udieresis" horiz-adv-x="591" d="M262 -10Q215 -10 175 8T111 67T86 171V500H158V190Q158 121 187 87T280 53Q309 53 335 64T382 96T415 150T427 224V500H499V0H436L432 83Q416 52 392 31T335 0T262 -10ZM196 678Q220 678
234 664T249 626Q249 602 235 588T196 573Q173 573 159 587T144 626Q144 649 158 663T196 678ZM389 678Q413 678 427 664T442 626Q442 602 428 588T389 573Q366 573 352 587T337 626Q337 649 351 663T389 678Z" />
<glyph unicode="&#xfd;" glyph-name="yacute" horiz-adv-x="494" d="M480 500L255 -86Q239 -128 220 -157T173 -200T105 -215Q74 -215 47 -206T0 -180L21 -118Q39 -136 60 -144T102 -152Q129 -152 151 -135T192 -68L218 1L169 121L18 500H99L225 160L252 77L285
169L403 500H480ZM281 737H360L263 572H204L281 737Z" />
<glyph unicode="&#xfe;" glyph-name="thorn" horiz-adv-x="604" d="M92 -210V730H164V373L155 395Q175 446 221 478T327 510Q387 510 436 479T515 390T545 250Q545 169 516 111T436 21T326 -10Q265 -10 220 22T155 105L164 119V-210H92ZM318 53Q390 53 431 106T473
250Q473 340 433 393T321 447Q275 447 240 423T184 354T164 250Q164 191 183 147T237 78T318 53Z" />
<glyph unicode="&#xff;" glyph-name="ydieresis" horiz-adv-x="494" d="M480 500L255 -86Q239 -128 220 -157T173 -200T105 -215Q74 -215 47 -206T0 -180L21 -118Q39 -136 60 -144T102 -152Q129 -152 151 -135T192 -68L218 1L169 121L18 500H99L225 160L252 77L285
169L403 500H480ZM151 678Q175 678 189 664T204 626Q204 602 190 588T151 573Q128 573 114 587T99 626Q99 649 113 663T151 678ZM344 678Q368 678 382 664T397 626Q397 602 383 588T344 573Q321 573 307 587T292 626Q292 649 306 663T344 678Z" />
<glyph unicode="&#x2013;" glyph-name="endash" horiz-adv-x="658" d="M577 296V229H80V296H577Z" />
<glyph unicode="&#x2014;" glyph-name="emdash" horiz-adv-x="1005" d="M924 296V229H80V296H924Z" />
<glyph unicode="&#x2018;" glyph-name="quoteleft" horiz-adv-x="245" d="M123 448Q90 448 72 473T53 539Q53 571 64 601T98 656T156 699L194 664Q168 655 149 639T117 602T102 562L105 560Q109 563 115 565T132 567Q149 567 166 553T183 509Q183 484 166 466T123 448Z" />
<glyph unicode="&#x2019;" glyph-name="quoteright" horiz-adv-x="245" d="M126 699Q159 699 177 674T196 608Q196 577 185 547T152 491T93 448L55 483Q81 492 100 508T132 545T147 585L144 587Q140 584 134 582T117 580Q101 580 84 594T66 638Q66 663 83 681T126 699Z" />
<glyph unicode="&#x201a;" glyph-name="quotesinglbase" horiz-adv-x="245" d="M382 110Q415 110 433 85T452 19Q452 -12 441 -42T408 -98T349 -141L311 -106Q337 -97 356 -81T388 -44T403 -4L400 -2Q396 -5 390 -7T373 -9Q357 -9 340 5T322 49Q322 74 339 92T382 110Z" />
<glyph unicode="&#x201c;" glyph-name="quotedblleft" horiz-adv-x="422" d="M123 448Q90 448 72 473T53 539Q53 571 64 601T98 656T156 699L194 664Q168 655 149 639T117 602T102 562L105 560Q109 563 115 565T132 567Q149 567 166 553T183 509Q183 484 166 466T123
448ZM300 448Q267 448 249 473T230 539Q230 571 241 601T275 656T333 699L371 664Q345 655 326 639T294 602T279 562L282 560Q286 563 292 565T309 567Q326 567 343 553T360 509Q360 484 343 466T300 448Z" />
<glyph unicode="&#x201d;" glyph-name="quotedblright" horiz-adv-x="422" d="M126 699Q159 699 177 674T196 608Q196 577 185 547T152 491T93 448L55 483Q81 492 100 508T132 545T147 585L144 587Q140 584 134 582T117 580Q101 580 84 594T66 638Q66 663 83 681T126
699ZM303 699Q336 699 354 674T373 608Q373 577 362 547T329 491T270 448L232 483Q258 492 277 508T309 545T324 585L321 587Q317 584 311 582T294 580Q278 580 261 594T243 638Q243 663 260 681T303 699Z" />
<glyph unicode="&#x201e;" glyph-name="quotedblbase" horiz-adv-x="422" d="M382 110Q415 110 433 85T452 19Q452 -12 441 -42T408 -98T349 -141L311 -106Q337 -97 356 -81T388 -44T403 -4L400 -2Q396 -5 390 -7T373 -9Q357 -9 340 5T322 49Q322 74 339 92T382
110ZM303 110Q336 110 354 85T373 19Q373 -12 362 -42T329 -98T270 -141L232 -106Q258 -97 277 -81T309 -44T324 -4L321 -2Q317 -5 311 -7T294 -9Q278 -9 261 5T243 49Q243 74 260 92T303 110Z" />
<glyph unicode="&#x2022;" glyph-name="bullet" horiz-adv-x="430" d="M215 224Q165 224 132 256T98 337Q98 387 131 419T215 451Q266 451 299 419T332 337Q332 288 299 256T215 224Z" />
<glyph unicode="&#x2039;" glyph-name="guilsinglleft" horiz-adv-x="309" d="M257 461L127 265L257 69H179L50 265L179 461H257Z" />
<glyph unicode="&#x203a;" glyph-name="guilsinglright" horiz-adv-x="309" d="M52 69L182 265L52 461H130L259 265L130 69H52Z" />
</font>
</defs>
</svg>
