<?xml version="1.0" standalone="no"?>
<!DOCTYPE svg PUBLIC "-//W3C//DTD SVG 1.1//EN" "http://www.w3.org/Graphics/SVG/1.1/DTD/svg11.dtd">
<svg xmlns="http://www.w3.org/2000/svg">
<defs >
<font id="KantumruyPro" horiz-adv-x="625" ><font-face
    font-family="Kantumruy Pro"
    units-per-em="1000"
    panose-1="0 0 0 0 0 0 0 0 0 0"
    ascent="920"
    descent="-260"
    alphabetic="0" />
<glyph unicode=" " glyph-name="space" horiz-adv-x="286" />
<glyph unicode="!" glyph-name="exclam" horiz-adv-x="300" d="M71 215L105 447L154 660H332L283 447L209 215H71ZM106 -9Q65 -9 41 9T16 63Q16 108 43 134T117 161Q158 161 183 142T208 89Q208 44 181 18T106 -9Z" />
<glyph unicode="&quot;" glyph-name="quotedbl" horiz-adv-x="450" d="M507 678L413 401H295L360 678H507ZM308 678L214 401H96L161 678H308Z" />
<glyph unicode="#" glyph-name="numbersign" horiz-adv-x="679" d="M312 0L523 660H643L430 0H312ZM32 159V261H617L616 159H32ZM70 0L282 660H401L189 0H70ZM100 399V501H684V399H100Z" />
<glyph unicode="$" glyph-name="dollar" horiz-adv-x="626" d="M322 -1Q253 -1 192 16T81 69T-2 159L99 253Q121 209 158 179T240 134T331 119Q363 119 383 128T414 153T425 188Q425 202 419 213T397 233T354 250L250 281Q203 295 169 319T115 377T96 454Q96 519
130 565T225 635T361 660Q418 660 471 645T570 599T646 519L548 431Q524 472 494 496T429 530T353 541Q302 541 276 521T249 474Q249 455 263 439T309 412L439 373Q483 360 513 338T559 284T575 215Q575 145 541 97T450 24T322 -1ZM187 -88L381 748H485L292 -88H187Z"
/>
<glyph unicode="%" glyph-name="percent" horiz-adv-x="1001" d="M137 0L758 661H900L280 0H137ZM257 294Q180 294 133 340T85 462Q85 520 111 567T182 642T285 670Q363 670 410 624T458 502Q458 444 432 397T361 322T257 294ZM263 408Q285 408 300 421T324 454T333
498Q333 525 319 540T280 556Q258 556 242 543T218 510T210 466Q210 439 224 424T263 408ZM753 -9Q676 -9 629 36T581 158Q581 217 607 264T678 339T781 367Q859 367 906 321T954 199Q954 141 928 94T857 19T753 -9ZM759 105Q781 105 796 118T820 151T829 195Q829
221 815 237T776 253Q754 253 738 240T714 207T706 162Q706 136 720 121T759 105Z" />
<glyph unicode="&amp;" glyph-name="ampersand" horiz-adv-x="633" d="M225 -10Q125 -10 69 41T12 172Q12 235 40 279T118 351T234 389L281 411Q319 418 349 428T397 458T415 508Q415 533 401 546T367 559Q335 559 318 537T301 481Q301 459 308 430T334 361T389
261Q418 213 449 176T516 118T595 101L564 -10H547Q467 -10 407 39T287 183Q242 254 217 305T180 398T169 476Q169 534 194 577T266 645T375 670Q453 670 498 634T544 537Q544 480 515 438T432 369T308 329L301 310Q261 301 230 286T180 247T162 189Q162 146 190
123T264 100Q302 100 330 116T385 158L406 170Q432 193 451 229T480 315L594 312Q577 243 543 185T465 92L444 78Q401 42 350 16T225 -10Z" />
<glyph unicode="&apos;" glyph-name="quotesingle" horiz-adv-x="251" d="M308 678L214 401H96L161 678H308Z" />
<glyph unicode="(" glyph-name="parenleft" horiz-adv-x="393" d="M201 -191Q137 -114 103 -19T68 188Q68 276 92 357T160 510T268 639T410 736L472 656Q387 598 331 523T246 357T217 160Q217 79 237 10T293 -118L201 -191Z" />
<glyph unicode=")" glyph-name="parenright" horiz-adv-x="393" d="M191 736Q256 659 290 564T324 357Q324 269 300 188T232 35T124 -94T-18 -191L-80 -111Q5 -53 61 22T146 188T175 385Q175 466 155 535T99 663L191 736Z" />
<glyph unicode="*" glyph-name="asterisk" horiz-adv-x="585" d="M389 237L338 358L328 396L300 359L198 256L116 340L222 439L259 466L221 477L101 531L161 639L277 578L312 555L315 600L341 730H464L427 587L411 545L453 560L591 591L601 474L463 449L418 446L441
411L498 293L389 237Z" />
<glyph unicode="+" glyph-name="plus" horiz-adv-x="604" d="M448 589L326 60H191L313 589H448ZM585 386L557 264H54L82 386H585Z" />
<glyph unicode="," glyph-name="comma" horiz-adv-x="282" d="M107 172Q159 172 182 144T206 71Q206 22 180 -25T107 -108T-4 -159L-43 -94Q-5 -85 25 -70T76 -36T107 2L105 4Q98 1 92 0T75 -2Q46 -2 25 20T4 74Q4 118 32 145T107 172Z" />
<glyph unicode="-" glyph-name="hyphen" horiz-adv-x="528" d="M467 337L435 198H69L101 337H467Z" />
<glyph unicode="." glyph-name="period" horiz-adv-x="286" d="M99 -8Q57 -8 32 11T6 68Q6 115 33 143T110 172Q152 172 177 152T203 95Q203 48 175 20T99 -8Z" />
<glyph unicode="/" glyph-name="slash" horiz-adv-x="461" d="M557 712L104 -70H-64L389 712H557Z" />
<glyph unicode="0" glyph-name="zero" horiz-adv-x="633" d="M302 -10Q223 -10 169 21T87 111T59 247Q59 274 62 306T71 367Q89 450 124 519T219 629T372 671Q450 671 503 639T583 549T611 413Q611 384 608 354T599 295Q582 213 547 144T452 32T302 -10ZM304 125Q336
125 359 146T400 208T433 309Q442 344 446 375T451 429Q451 485 430 511T368 537Q335 537 311 516T269 453T236 352Q218 283 218 232Q218 176 241 151T304 125Z" />
<glyph unicode="1" glyph-name="one" horiz-adv-x="418" d="M115 0L199 372Q204 391 208 410T219 449T231 488Q208 470 180 454T121 425T64 408L87 554Q118 561 157 578T235 618T298 660H434L281 0H115Z" />
<glyph unicode="2" glyph-name="two" horiz-adv-x="572" d="M3 0L30 114Q95 155 159 198T276 285T360 374T392 463Q392 496 372 515T319 535Q274 535 246 502T210 409L67 464Q88 559 154 614T336 670Q413 670 463 644T539 575T564 486Q564 420 534 367T453 271T346
193T234 128V127Q253 129 285 130T347 131H519L488 0H3Z" />
<glyph unicode="3" glyph-name="three" horiz-adv-x="575" d="M279 -10Q164 -10 98 45T22 188L182 222Q185 173 208 148T277 123Q303 123 321 134T350 165T361 208Q361 249 335 263T272 278Q266 278 260 278T248 276L273 387Q281 385 291 384T312 383Q341 383
361 393T392 422T403 468Q403 503 380 520T327 537Q287 537 266 517T233 459L90 513Q117 590 181 630T338 670Q410 670 461 649T539 590T567 498Q567 451 549 413T497 353T419 328L418 324Q462 317 494 286T526 197Q526 131 492 85T401 14T279 -10Z" />
<glyph unicode="4" glyph-name="four" horiz-adv-x="621" d="M282 0L314 145H15L43 263Q63 289 83 314T125 365L379 660H585L494 263H606L578 145H466L432 0H282ZM174 263H342L407 535L249 345Q233 326 214 305T174 263Z" />
<glyph unicode="5" glyph-name="five" horiz-adv-x="563" d="M268 -10Q204 -10 153 11T67 71T19 156L175 211Q178 186 188 166T220 133T274 120Q307 120 329 135T362 175T374 229Q374 270 347 291T278 313Q251 313 232 306T192 284L69 313L180 660H585L552 527H279L230
381Q252 402 283 413T352 425Q404 425 444 403T508 341T531 246Q531 170 498 113T406 23T268 -10Z" />
<glyph unicode="6" glyph-name="six" horiz-adv-x="593" d="M318 -11Q240 -11 182 21T93 112T61 254Q61 337 82 411T144 543T248 634T391 667Q479 667 537 625T609 507L463 450Q462 487 439 509T378 532Q342 532 315 514T269 465T239 397T223 322Q243 361 286
382T379 404Q460 404 510 356T560 228Q560 158 530 104T445 20T318 -11ZM315 115Q344 115 363 128T393 165T403 216Q403 252 380 273T318 294Q290 294 270 281T238 247T227 199Q227 180 233 164T252 138T280 121T315 115Z" />
<glyph unicode="7" glyph-name="seven" horiz-adv-x="589" d="M128 660H648L617 535Q529 460 471 377T376 199T318 0H148Q177 161 266 308T515 574L535 525H95L128 660Z" />
<glyph unicode="8" glyph-name="eight" horiz-adv-x="620" d="M313 -11Q240 -11 176 10T71 74T31 180Q31 227 49 263T106 323T201 356L199 350Q174 363 156 382T129 425T119 477Q119 539 150 582T233 647T351 669Q419 669 477 649T570 589T605 491Q605 425 567
379T459 318V324Q490 310 512 290T546 243T558 186Q558 122 526 79T438 12T313 -11ZM304 115Q346 115 370 138T394 199Q394 225 380 243T343 271T291 281Q263 281 243 270T211 240T199 196Q199 171 213 153T250 125T304 115ZM361 389Q386 389 405 400T435 429T446
471Q446 503 423 523T359 544Q333 544 314 533T284 504T274 463Q274 442 284 426T314 399T361 389Z" />
<glyph unicode="9" glyph-name="nine" horiz-adv-x="598" d="M256 -10Q165 -10 103 36T29 165L185 205Q187 182 197 163T225 133T270 121Q303 121 327 137T368 181T395 245T411 320Q400 295 379 279T331 254T275 246Q217 246 173 270T105 337T80 435Q80 504 113
557T203 640T331 670Q409 670 463 641T545 553T574 410Q574 330 555 255T496 120T397 25T256 -10ZM322 362Q350 362 370 374T403 408T415 458Q415 484 404 502T373 530T329 540Q300 540 279 528T247 494T236 446Q236 412 259 387T322 362Z" />
<glyph unicode=":" glyph-name="colon" horiz-adv-x="286" d="M177 330Q135 330 110 349T84 406Q84 453 111 481T188 510Q230 510 255 490T281 433Q281 386 253 358T177 330ZM99 -8Q57 -8 32 11T6 68Q6 115 33 143T110 172Q152 172 177 152T203 95Q203 48 175 20T99 -8Z" />
<glyph unicode=";" glyph-name="semicolon" horiz-adv-x="300" d="M113 172Q165 172 188 144T212 71Q212 22 186 -25T113 -108T2 -159L-37 -94Q1 -85 31 -70T82 -36T113 2L111 4Q104 1 98 0T81 -2Q52 -2 31 20T10 74Q10 118 38 145T113 172ZM194 510Q236 510 261
491T287 434Q287 387 260 359T183 330Q141 330 116 350T90 407Q90 454 118 482T194 510Z" />
<glyph unicode="&lt;" glyph-name="less" horiz-adv-x="596" d="M623 588L583 422L210 294L522 152L488 5L56 223L90 370L623 588Z" />
<glyph unicode="=" glyph-name="equal" horiz-adv-x="604" d="M593 483L566 366H92L118 483H593ZM543 267L516 150H41L69 267H543Z" />
<glyph unicode="&gt;" glyph-name="greater" horiz-adv-x="596" d="M-17 5L23 171L396 299L84 441L118 588L550 370L516 223L-17 5Z" />
<glyph unicode="?" glyph-name="question" horiz-adv-x="588" d="M191 214L226 367Q280 368 323 377T392 408T418 472Q418 503 397 518T343 534Q301 534 276 510T238 443L82 504Q97 549 132 586T224 646T362 669Q432 669 485 648T567 588T597 494Q597 434 570
390T491 319T362 286L341 214H191ZM238 -8Q197 -8 173 10T148 64Q148 108 174 135T249 162Q289 162 314 143T339 89Q339 45 312 19T238 -8Z" />
<glyph unicode="@" glyph-name="at" horiz-adv-x="924" d="M454 -186Q336 -186 244 -141T98 -9T45 200Q45 303 78 388T172 535T316 631T498 665Q584 665 654 640T774 567T852 452T880 300Q880 218 860 160T807 66T735 12T658 -6Q615 -6 584 9T538 52T523 117Q501
67 459 38T370 9Q327 9 293 31T240 96T221 198Q221 249 236 297T278 383T346 444T435 467Q478 467 514 443T561 365L582 458H729L663 172Q661 162 659 151T657 128Q657 102 669 91T702 80Q722 80 740 93T773 133T796 200T805 296Q805 367 783 422T719 514T621 571T495
591Q414 591 347 563T231 484T156 360T129 200Q129 97 174 28T296 -77T461 -112Q515 -112 555 -102T624 -77L647 -144Q623 -155 596 -164T534 -180T454 -186ZM437 118Q466 118 488 142T522 204T535 277Q535 302 527 319T505 347T469 357Q437 357 414 333T378 273T366
202Q366 176 374 157T398 128T437 118Z" />
<glyph unicode="A" glyph-name="A" horiz-adv-x="661" d="M-55 0L322 660H530L599 0H436L425 155H206L124 0H-55ZM268 272H419L402 528L268 272Z" />
<glyph unicode="B" glyph-name="B" horiz-adv-x="675" d="M14 0L167 660H470Q561 660 612 619T663 507Q663 456 643 419T587 358T509 327V326Q562 321 595 286T629 200Q629 106 563 53T376 0H14ZM208 121H347Q399 121 427 142T455 204Q455 224 447 238T421 259T377
266H242L208 121ZM270 389H388Q420 389 442 400T476 430T488 474Q488 506 468 520T414 534H303L270 389Z" />
<glyph unicode="C" glyph-name="C" horiz-adv-x="679" d="M350 -10Q267 -10 201 24T97 121T59 273Q59 357 83 429T152 555T264 640T414 670Q523 670 595 615T685 455L520 418Q515 478 488 506T408 535Q363 535 330 511T275 446T243 360T232 271Q232 226 247 194T291
143T361 125Q410 125 439 151T487 221L641 161Q598 82 528 36T350 -10Z" />
<glyph unicode="D" glyph-name="D" horiz-adv-x="700" d="M14 0L167 660H397Q490 660 552 626T647 532T679 392Q679 305 654 233T582 109T467 29T315 0H14ZM216 130H309Q357 130 394 152T455 212T492 296T505 390Q505 432 491 463T449 512T378 530H309L216 130Z" />
<glyph unicode="E" glyph-name="E" horiz-adv-x="619" d="M14 0L167 660H674L641 527H308L277 393H541L511 268H248L217 133H562L530 0H14Z" />
<glyph unicode="F" glyph-name="F" horiz-adv-x="592" d="M629 527H308L275 387H539L508 254H245L186 0H14L167 660H661L629 527Z" />
<glyph unicode="G" glyph-name="G" horiz-adv-x="705" d="M315 -9Q243 -9 185 25T92 123T58 275Q58 355 81 426T151 553T264 639T417 670Q489 670 546 647T641 578T689 464L527 433Q521 483 492 509T412 535Q372 535 339 516T281 462T244 384T231 289Q231 238
246 200T292 142T370 121Q407 121 434 133T479 166T506 216L513 238H359L386 352H675L587 0H473L506 155L521 139Q504 91 477 58T409 8T315 -9Z" />
<glyph unicode="H" glyph-name="H" horiz-adv-x="729" d="M752 660L599 0H427L580 660H752ZM339 660L186 0H14L167 660H339ZM612 399L581 266H160L191 399H612Z" />
<glyph unicode="I" glyph-name="I" horiz-adv-x="316" d="M339 660L186 0H14L167 660H339Z" />
<glyph unicode="J" glyph-name="J" horiz-adv-x="601" d="M257 -9Q161 -9 103 31T28 138T41 282L212 289Q181 207 199 166T270 125Q315 125 336 157T374 264L465 660H637L539 234Q528 186 509 143T458 65T377 11T257 -9Z" />
<glyph unicode="K" glyph-name="K" horiz-adv-x="678" d="M14 0L167 660H339L277 392L563 660H758L465 383L611 0H434L332 274L227 177L186 0H14Z" />
<glyph unicode="L" glyph-name="L" horiz-adv-x="594" d="M218 133H541L509 0H14L167 660H339L218 133Z" />
<glyph unicode="M" glyph-name="M" horiz-adv-x="896" d="M14 0L167 660H384L414 340L422 177H423L502 340L674 660H919L766 0H614L684 303L731 498H729L456 0H324L273 494H271L235 303L166 0H14Z" />
<glyph unicode="N" glyph-name="N" horiz-adv-x="728" d="M14 0L167 660H351L465 297L494 189H495L523 327L600 660H751L598 0H417L299 357L269 465H267L242 333L166 0H14Z" />
<glyph unicode="O" glyph-name="O" horiz-adv-x="722" d="M348 -10Q267 -10 202 24T98 123T60 279Q60 362 83 433T152 557T263 640T412 670Q493 670 558 636T661 537T699 381Q699 299 676 228T607 103T497 20T348 -10ZM355 125Q398 125 430 149T483 213T516 300T527
392Q527 438 513 469T471 518T405 535Q362 535 330 511T276 448T244 361T233 268Q233 223 247 191T289 142T355 125Z" />
<glyph unicode="P" glyph-name="P" horiz-adv-x="656" d="M14 0L167 660H412Q528 660 593 608T658 463Q658 391 624 336T527 248T378 216H155L185 345H373Q411 345 436 359T475 398T488 450Q488 487 465 509T392 531H308L186 0H14Z" />
<glyph unicode="Q" glyph-name="Q" horiz-adv-x="722" d="M450 -204Q399 -204 352 -187T275 -134T245 -43Q245 -25 247 -10T253 18L367 25Q360 8 360 -13Q360 -46 389 -60T465 -75Q499 -75 524 -69T570 -52L571 -175Q547 -189 518 -196T450 -204ZM348 -10Q267
-10 202 24T98 123T60 279Q60 362 83 433T152 557T263 640T412 670Q493 670 558 636T661 537T699 381Q699 299 676 228T607 103T497 20T348 -10ZM355 125Q398 125 430 149T483 213T516 300T527 392Q527 438 513 469T471 518T405 535Q362 535 330 511T276 448T244
361T233 268Q233 223 247 191T289 142T355 125Z" />
<glyph unicode="R" glyph-name="R" horiz-adv-x="669" d="M14 0L167 660H447Q546 660 604 611T663 473Q663 402 630 352T541 274T412 242L375 233H222L250 355H377Q414 355 439 368T479 404T493 457Q493 495 468 512T404 530H305L183 0H14ZM432 0L328 286L484
310L606 0H432Z" />
<glyph unicode="S" glyph-name="S" horiz-adv-x="632" d="M326 -11Q258 -11 198 7T88 62T4 153L104 252Q128 209 164 180T242 137T326 122Q355 122 374 131T402 155T412 187Q412 208 397 221T351 244L254 276Q188 298 143 342T98 458Q98 525 132 572T226 645T362
670Q464 670 533 634T649 531L544 435Q524 471 495 493T432 526T362 537Q333 537 314 529T286 508T277 476Q277 455 295 440T345 413L442 381Q516 357 553 316T591 208Q591 139 556 90T460 15T326 -11Z" />
<glyph unicode="T" glyph-name="T" horiz-adv-x="639" d="M710 660L678 527H470L349 0H177L298 527H88L120 660H710Z" />
<glyph unicode="U" glyph-name="U" horiz-adv-x="707" d="M324 -10Q227 -10 162 26T71 131T68 293L154 660H326L237 269Q227 223 237 191T274 142T340 125Q393 125 422 158T467 255L561 660H732L637 250Q608 123 533 57T324 -10Z" />
<glyph unicode="V" glyph-name="V" horiz-adv-x="653" d="M746 660L371 0H169L101 660H265L291 265L297 135L356 264L570 660H746Z" />
<glyph unicode="W" glyph-name="W" horiz-adv-x="978" d="M137 0L103 660H272L271 145L492 660H651L657 143L876 660H1064L724 0H534L530 320L540 486H537L469 320L327 0H137Z" />
<glyph unicode="X" glyph-name="X" horiz-adv-x="653" d="M-51 0L252 343L116 660H303L376 464L530 660H724L437 334L586 0H399L322 206L156 0H-51Z" />
<glyph unicode="Y" glyph-name="Y" horiz-adv-x="643" d="M177 0L234 245L106 660H272L323 478L347 368L416 480L542 660H726L403 233L349 0H177Z" />
<glyph unicode="Z" glyph-name="Z" horiz-adv-x="616" d="M-17 0L13 131L443 530H98L129 660H666L635 530L206 130H564L533 0H-17Z" />
<glyph unicode="[" glyph-name="bracketleft" horiz-adv-x="390" d="M444 594H311L162 -49H295L268 -168H-13L191 713H471L444 594Z" />
<glyph unicode="\" glyph-name="backslash" horiz-adv-x="467" d="M106 712H255L371 -70H222L106 712Z" />
<glyph unicode="]" glyph-name="bracketright" horiz-adv-x="390" d="M-55 -49H78L227 594H94L121 713H402L198 -168H-82L-55 -49Z" />
<glyph unicode="^" glyph-name="asciicircum" horiz-adv-x="602" d="M49 355L339 724H483L602 355H458L385 612L204 355H49Z" />
<glyph unicode="_" glyph-name="underscore" horiz-adv-x="539" d="M466 -66L435 -201H-104L-73 -66H466Z" />
<glyph unicode="`" glyph-name="grave" horiz-adv-x="500" d="M406 738L436 565H319L250 738H406Z" />
<glyph unicode="a" glyph-name="a" horiz-adv-x="619" d="M200 -9Q152 -9 114 14T53 82T31 190Q31 251 48 308T97 410T174 483T274 510Q323 510 363 483T415 395L438 500H608L493 0H338L356 94Q332 46 291 19T200 -9ZM275 115Q299 115 319 131T354 173T377 232T386
295Q386 323 377 343T352 374T313 385Q277 385 252 357T213 289T199 210Q199 180 207 159T233 127T275 115Z" />
<glyph unicode="b" glyph-name="b" horiz-adv-x="609" d="M419 509Q466 509 502 487T558 420T578 311Q578 251 562 194T514 91T441 17T345 -10Q292 -10 248 18T193 104L166 0H0L165 712H335L268 420Q293 461 332 485T419 509ZM297 115Q332 115 357 143T396 211T410
291Q410 321 401 342T376 373T337 384Q302 384 277 357T238 288T224 204Q224 164 242 140T297 115Z" />
<glyph unicode="c" glyph-name="c" horiz-adv-x="554" d="M280 -10Q203 -10 148 19T64 99T34 216Q34 297 67 364T163 470T317 510Q384 510 435 487T515 423T545 327L382 301Q384 340 369 364T315 388Q280 388 254 360T214 288T200 202Q200 174 210 154T238 122T281
110Q307 110 329 128T361 178L513 129Q485 65 425 28T280 -10Z" />
<glyph unicode="d" glyph-name="d" horiz-adv-x="620" d="M200 -9Q152 -9 114 14T53 82T31 191Q31 251 48 308T97 410T174 483T274 510Q323 510 363 483T415 395L488 712H658L493 0H339L356 94Q333 46 292 19T200 -9ZM275 115Q300 115 320 131T356 173T379 232T387
295Q387 323 378 343T353 374T313 385Q277 385 252 357T213 289T199 210Q199 180 207 159T233 127T275 115Z" />
<glyph unicode="e" glyph-name="e" horiz-adv-x="572" d="M276 -9Q204 -9 150 19T65 97T34 216Q34 301 68 367T165 471T314 509Q385 509 435 482T511 406T538 288Q538 264 536 243T528 205H144L145 297H417L371 271Q374 283 375 293T377 315Q377 340 369 357T345
382T309 391Q275 391 252 374T216 330T198 270T192 207Q192 176 203 154T235 121T283 109Q318 109 339 125T371 167L511 112Q485 55 422 23T276 -9Z" />
<glyph unicode="f" glyph-name="f" horiz-adv-x="409" d="M42 0L168 549Q192 649 251 687T395 726Q432 726 461 719T509 701L471 592Q462 597 448 601T414 605Q376 605 357 591T329 538L313 470L314 442L212 0H42ZM45 379L73 500H455L426 379H45Z" />
<glyph unicode="g" glyph-name="g" horiz-adv-x="608" d="M205 -215Q146 -215 95 -195T12 -135T-21 -32L150 -14Q151 -56 167 -80T226 -105Q250 -105 269 -94T304 -58T329 10L366 170H374Q358 94 314 54T204 13Q156 13 117 36T56 104T33 209Q33 269 50 323T98
419T174 485T274 510Q311 510 344 493T398 441T418 350L398 325L438 500H608L498 24Q470 -96 403 -155T205 -215ZM280 136Q312 136 336 159T373 220T386 297Q386 324 377 343T351 374T311 385Q277 385 252 362T214 302T201 229Q201 189 220 163T280 136Z" />
<glyph unicode="h" glyph-name="h" horiz-adv-x="602" d="M0 0L165 712H335L260 386L243 362Q262 424 309 467T433 510Q481 510 515 487T563 422T564 322L490 0H320L388 295Q397 335 382 357T333 380Q307 380 288 367T255 329T233 270L170 0H0Z" />
<glyph unicode="i" glyph-name="i" horiz-adv-x="288" d="M287 500L171 0H1L117 500H287ZM225 558Q181 558 157 576T137 634Q142 681 168 701T241 721Q287 721 311 703T330 646Q326 597 299 578T225 558Z" />
<glyph unicode="j" glyph-name="j" horiz-adv-x="283" d="M-34 -215Q-69 -215 -105 -207T-166 -181L-127 -71Q-118 -78 -105 -84T-75 -90Q-46 -90 -33 -75T-9 -17L112 500H282L157 -39Q136 -130 90 -172T-34 -215ZM476 558Q432 558 408 576T388 634Q393 681 419
701T492 721Q538 721 562 703T581 646Q577 597 550 578T476 558Z" />
<glyph unicode="k" glyph-name="k" horiz-adv-x="605" d="M645 500L362 250L342 241L165 83L180 244L448 500H645ZM335 712L170 0H0L165 712H335ZM404 350L549 0H382L285 253L404 350Z" />
<glyph unicode="l" glyph-name="l" horiz-adv-x="327" d="M174 -9Q86 -9 53 41T39 173L163 712H333L210 175Q203 141 212 125T251 109Q272 109 283 113L252 3Q237 -4 219 -6T174 -9Z" />
<glyph unicode="m" glyph-name="m" horiz-adv-x="922" d="M0 0L116 500H267L242 341L233 355Q254 430 305 470T427 510Q479 510 514 487T562 420T562 315L489 0H319L388 294Q398 335 383 357T334 380Q307 380 288 367T255 329T233 270L170 0H0ZM639 0L707 294Q716
333 703 356T654 380Q628 380 608 368T574 331T552 270L543 345Q568 428 622 469T743 510Q796 510 832 487T882 420T882 315L809 0H639Z" />
<glyph unicode="n" glyph-name="n" horiz-adv-x="603" d="M0 0L116 500H267L241 341L233 355Q254 430 305 470T427 510Q479 510 514 487T563 420T563 316L490 0H320L388 295Q397 335 382 357T333 380Q307 380 288 367T255 329T233 270L170 0H0Z" />
<glyph unicode="o" glyph-name="o" horiz-adv-x="590" d="M275 -10Q201 -10 147 20T63 101T34 216Q34 297 67 364T163 470T315 510Q390 510 444 481T527 400T556 284Q556 204 523 137T428 30T275 -10ZM278 110Q311 110 336 139T376 211T390 298Q390 340 370 365T312
390Q279 390 254 361T215 289T200 202Q200 174 209 154T235 122T278 110Z" />
<glyph unicode="p" glyph-name="p" horiz-adv-x="609" d="M-49 -210L115 500H269L239 330L228 336Q245 416 298 462T420 509Q466 509 501 487T557 421T578 313Q578 252 562 194T514 90T440 17T345 -10Q306 -10 271 5T213 54T189 142L210 175L121 -210H-49ZM297
115Q332 115 357 143T396 212T410 292Q410 321 402 341T376 373T335 384Q302 384 277 357T237 289T223 204Q223 164 241 140T297 115Z" />
<glyph unicode="q" glyph-name="q" horiz-adv-x="619" d="M280 -210L366 165L375 155Q357 79 310 35T200 -9Q152 -9 114 14T54 81T31 190Q31 251 48 308T97 411T174 483T274 510Q312 510 345 494T398 443T417 352L399 329L438 500H608L444 -210H280ZM275 115Q308
115 333 142T372 211T386 295Q386 323 377 343T352 374T313 385Q277 385 252 357T213 289T199 210Q199 181 207 160T233 127T275 115Z" />
<glyph unicode="r" glyph-name="r" horiz-adv-x="417" d="M0 0L116 500H267L235 318L228 335Q251 414 298 462T416 510Q433 510 444 508T463 501L421 358Q411 363 398 365T364 368Q335 368 307 355T257 311T223 231L170 0H0Z" />
<glyph unicode="s" glyph-name="s" horiz-adv-x="514" d="M248 -11Q196 -11 147 4T57 47T-8 115L80 196Q106 156 146 130T232 104Q262 104 278 113T294 141Q294 153 285 163T254 181L197 199Q125 222 93 257T60 345Q60 396 87 433T162 490T273 510Q324 510 367
498T445 463T503 407L419 323Q398 355 360 375T280 396Q251 396 236 387T221 360Q221 343 235 335T264 322L356 293Q409 277 436 244T463 163Q463 82 405 36T248 -11Z" />
<glyph unicode="t" glyph-name="t" horiz-adv-x="427" d="M248 -9Q157 -9 110 39T85 183L182 608L364 656L256 187Q246 148 264 129T319 109Q341 109 354 113T379 123L367 14Q341 1 311 -4T248 -9ZM40 379L69 500H458L429 379H40Z" />
<glyph unicode="u" glyph-name="u" horiz-adv-x="602" d="M167 -9Q116 -9 80 14T28 79T27 181L102 500H272L204 206Q194 165 211 143T261 121Q289 121 307 135T338 173T358 230L421 500H591L475 0H324L349 159L358 144Q336 70 286 31T167 -9Z" />
<glyph unicode="v" glyph-name="v" horiz-adv-x="540" d="M411 500H602L315 0H111L54 500H222L237 38L204 44L411 500Z" />
<glyph unicode="w" glyph-name="w" horiz-adv-x="870" d="M84 0L60 500H226L227 139L397 500H565L583 137L743 500H923L667 0H464L445 308L292 0H84Z" />
<glyph unicode="x" glyph-name="x" horiz-adv-x="578" d="M-54 0L200 280L254 269L428 500H625L380 227L317 234L150 0H-54ZM332 0L251 237L192 234L71 500H255L323 266L386 276L515 0H332Z" />
<glyph unicode="y" glyph-name="y" horiz-adv-x="551" d="M42 -215Q-1 -215 -36 -206T-92 -180L-45 -61Q-28 -75 -7 -82T40 -90Q69 -90 90 -79T124 -44L143 -11L58 500H231L243 231L246 109L302 228L432 500H613L296 -42Q264 -97 229 -136T149 -195T42 -215Z" />
<glyph unicode="z" glyph-name="z" horiz-adv-x="504" d="M-18 0L7 105L241 336L297 384L220 381H67L94 500H519L494 393L272 175L206 116L296 119H447L420 0H-18Z" />
<glyph unicode="{" glyph-name="braceleft" horiz-adv-x="413" d="M280 -191Q169 -191 119 -147T89 -10L116 108Q129 167 109 192T41 217H33L58 327H82Q123 327 149 346T186 412L225 581Q243 661 294 698T438 736H499L474 629H452Q412 629 388 609T352 543L315
382Q305 336 276 307T199 269Q240 258 256 228T261 149L227 2Q217 -44 235 -64T297 -86H309L285 -191H280Z" />
<glyph unicode="|" glyph-name="bar" horiz-adv-x="319" d="M341 713L137 -168H-13L191 713H341Z" />
<glyph unicode="}" glyph-name="braceright" horiz-adv-x="412" d="M-88 -191L-63 -86H-41Q3 -86 26 -64T60 2L96 163Q107 210 136 239T212 275Q171 287 156 317T150 396L184 542Q195 587 177 608T120 629H102L126 736H161Q250 736 297 693T325 567L296 437Q283
379 303 353T372 327H378L353 217H329Q289 217 263 198T225 132L186 -37Q168 -116 118 -153T-20 -191H-88Z" />
<glyph unicode="~" glyph-name="asciitilde" horiz-adv-x="592" d="M589 425Q575 351 546 309T479 249T403 231Q369 231 346 241T304 263T269 286T230 296Q211 296 195 281T171 236H41Q54 307 83 349T151 411T233 430Q263 430 285 420T325 397T360 374T399 364Q441
364 459 425H589Z" />
<glyph unicode="&#xa0;" glyph-name="uni00A0" horiz-adv-x="286" />
<glyph unicode="&#xa1;" glyph-name="exclamdown" horiz-adv-x="301" d="M218 285L184 53L135 -160H-43L6 53L80 285H218ZM183 509Q224 509 248 491T273 437Q273 392 246 366T172 339Q131 339 106 358T81 411Q81 456 108 482T183 509Z" />
<glyph unicode="&#xa2;" glyph-name="cent" horiz-adv-x="566" d="M276 -10Q203 -10 150 19T67 100T37 218Q37 306 71 371T167 473T311 510Q382 510 433 486T512 420T545 327L402 306Q404 348 380 375T311 403Q270 403 241 377T196 307T180 212Q180 179 191 153T225
112T281 97Q316 97 340 116T378 177L514 133Q489 67 426 29T276 -10ZM158 -100L319 600H424L263 -100H158Z" />
<glyph unicode="&#xa3;" glyph-name="sterling" horiz-adv-x="615" d="M68 271L86 347H483L465 271H68ZM411 -11Q368 -11 335 1T275 32T225 68T177 98T126 111Q111 111 102 103T92 82Q92 69 100 61T124 53Q150 53 166 73T190 123T198 187Q198 238 187 279T164
361T153 447Q153 513 184 563T268 642T389 670Q452 670 501 648T578 584T606 478L464 447Q463 491 445 518T387 546Q360 546 340 533T308 497T297 443Q297 413 302 383T312 321T317 250Q317 200 303 154T263 70T201 11T120 -11Q74 -11 45 13T15 78Q15 123 48 149T130
175Q160 175 188 168T244 150T298 128T349 110T397 102Q426 102 443 121T468 187L575 165Q573 108 550 69T490 9T411 -11Z" />
<glyph unicode="&#xa4;" glyph-name="currency" horiz-adv-x="650" d="M345 537Q407 537 453 511T526 438T552 331Q552 269 526 222T452 148T343 121Q281 121 234 147T161 221T134 329Q134 391 161 437T235 510T345 537ZM344 417Q308 417 286 393T263 329Q263
290 285 266T343 242Q379 242 401 266T423 331Q423 369 401 393T344 417ZM160 616L288 469L207 388L62 518L160 616ZM206 271L286 190L157 43L60 140L206 271ZM483 267L624 140L526 43L401 185L483 267ZM528 616L626 518L485 389L403 472L528 616Z" />
<glyph unicode="&#xa5;" glyph-name="yen" horiz-adv-x="650" d="M184 0L213 121H44L57 179H226L241 245H73L87 305H182L242 301L108 660H267L324 454L349 353H351L408 455L531 660H719L432 300L492 305H588L574 245H405L390 179H559L546 121H377L348 0H184Z" />
<glyph unicode="&#xa6;" glyph-name="brokenbar" horiz-adv-x="320" d="M341 713L254 333H104L191 713H341ZM226 212L137 -168H-13L76 212H226Z" />
<glyph unicode="&#xa7;" glyph-name="section" horiz-adv-x="614" d="M271 -111Q216 -111 164 -96T70 -51T5 26L107 92Q131 48 177 22T281 -5Q319 -5 342 9T366 49Q366 69 352 81T302 105L181 145Q135 161 102 180T51 228T33 300Q33 374 88 409T227 446L261 378Q203
374 179 360T154 320Q154 305 162 293T186 272T229 255L360 215Q426 195 461 163T496 81Q496 25 469 -18T391 -86T271 -111ZM391 111L360 183Q404 182 436 194T468 238Q468 258 452 270T405 293L251 342Q197 359 168 394T138 484Q138 540 166 581T244 646T361 669Q413
669 460 657T547 618T615 543L513 475Q487 519 448 538T357 558Q330 558 312 550T285 529T276 500Q276 478 290 464T351 436L441 410Q514 389 552 354T590 266Q590 216 565 179T495 124T391 111Z" />
<glyph unicode="&#xa8;" glyph-name="dieresis" horiz-adv-x="500" d="M442 555Q407 555 385 570T363 618Q363 665 389 687T458 709Q493 709 514 694T536 646Q536 598 511 577T442 555ZM219 555Q184 555 163 570T141 618Q141 665 167 687T236 709Q271 709 292
694T314 646Q314 598 289 577T219 555Z" />
<glyph unicode="&#xa9;" glyph-name="copyright" horiz-adv-x="778" d="M408 -10Q308 -10 230 33T108 153T63 330Q63 430 107 506T230 626T408 670Q509 670 586 627T708 508T752 330Q752 230 708 154T587 34T408 -10ZM408 74Q485 74 542 107T632 197T664 330Q664
405 632 463T543 553T408 586Q331 586 273 554T183 463T151 330Q151 255 183 198T273 107T408 74ZM413 138Q323 138 273 189T222 329Q222 417 272 468T413 520Q481 520 525 490T586 410L488 363Q478 386 461 395T418 404Q384 404 365 385T345 329Q345 293 365 274T419
254Q444 254 462 263T491 299L585 254Q562 193 521 166T413 138Z" />
<glyph unicode="&#xaa;" glyph-name="ordfeminine" horiz-adv-x="422" d="M179 306Q133 306 102 341T70 440Q70 497 90 547T148 630T237 662Q260 662 281 651T316 615T327 547L311 524L342 656H466L385 314H274L303 465L306 433Q293 372 258 339T179 306ZM15 151L36
240H380L359 151H15ZM236 397Q258 397 273 416T296 463T304 516Q304 540 294 555T263 571Q239 571 224 552T201 505T193 454Q193 429 203 413T236 397Z" />
<glyph unicode="&#xab;" glyph-name="guillemotleft" horiz-adv-x="578" d="M356 461L154 226L157 322L260 69H117L37 265L207 461H356ZM592 461L390 226L393 322L496 69H353L273 265L443 461H592Z" />
<glyph unicode="&#xac;" glyph-name="logicalnot" horiz-adv-x="604" d="M559 314L510 97H373L422 314H559ZM576 386L548 264H63L91 386H576Z" />
<glyph unicode="&#xad;" glyph-name="uni00AD" horiz-adv-x="0" />
<glyph unicode="&#xae;" glyph-name="registered" horiz-adv-x="780" d="M409 670Q513 670 590 628T710 509T753 330Q753 228 711 152T591 33T409 -10Q305 -10 227 32T107 151T64 330Q64 433 106 509T227 627T409 670ZM367 515V151H266V515H367ZM472 318L581 151H459L384
295L472 318ZM409 586Q332 586 274 555T185 466T153 330Q153 252 184 195T274 106T409 74Q486 74 543 105T632 194T664 330Q664 408 633 465T544 554T409 586ZM441 515Q497 515 534 482T572 396Q572 339 533 308T429 276H324V345H417Q441 345 455 355T469 388Q469
411 455 421T417 431H324V515H441Z" />
<glyph unicode="&#xaf;" glyph-name="overscore" horiz-adv-x="500" d="M527 674L503 569H144L169 674H527Z" />
<glyph unicode="&#xb0;" glyph-name="degree" horiz-adv-x="478" d="M293 298Q231 298 186 321T116 386T91 485Q91 541 115 582T185 647T293 670Q355 670 400 647T470 583T495 485Q495 428 470 386T400 321T293 298ZM293 407Q328 407 349 429T371 485Q371 519
350 540T293 562Q258 562 236 541T214 485Q214 451 236 429T293 407Z" />
<glyph unicode="&#xb1;" glyph-name="plusminus" horiz-adv-x="596" d="M453 652L345 185H222L330 652H453ZM598 477L570 360H76L103 477H598ZM514 115L488 1H-7L20 115H514Z" />
<glyph unicode="&#xb2;" glyph-name="uni00B2" horiz-adv-x="378" d="M56 334L75 416Q116 437 156 459T229 505T282 552T302 601Q302 623 292 631T266 640Q242 640 228 622T209 572L96 603Q109 665 153 700T276 736Q348 736 386 704T425 625Q425 583 407 553T360
500T296 461T230 429V428Q246 429 265 429T303 430H399L376 334H56Z" />
<glyph unicode="&#xb3;" glyph-name="uni00B3" horiz-adv-x="367" d="M227 327Q151 327 107 360T57 449L170 470Q172 443 186 430T223 416Q244 416 256 428T269 461Q269 480 258 489T224 498Q218 498 213 498T203 496L220 565Q226 564 232 563T245 562Q270 562
281 574T293 605Q293 623 282 632T252 641Q234 641 221 631T202 600L97 636Q111 681 153 708T265 736Q329 736 371 709T413 631Q413 590 389 561T322 528L321 526Q350 523 370 506T390 454Q390 413 368 385T308 342T227 327Z" />
<glyph unicode="&#xb4;" glyph-name="acute" horiz-adv-x="600" d="M366 738H530L382 565H256L366 738Z" />
<glyph unicode="&#xb5;" glyph-name="uni00B5" horiz-adv-x="616" d="M-48 -210L115 500H285L218 206Q209 166 224 144T275 121Q301 121 320 133T352 170T373 230L435 500H605L489 0H338L354 96Q328 46 285 19T187 -9Q161 -9 134 -2T83 25L190 78L122 -210H-48Z" />
<glyph unicode="&#xb6;" glyph-name="paragraph" horiz-adv-x="756" d="M218 -100L281 173Q246 174 209 187T141 227T90 295T70 394Q70 478 109 537T218 628T382 660H779L603 -100H465L610 530H502L357 -100H218ZM307 307L359 530H334Q296 530 267 516T222 474T205
402Q205 361 232 334T307 307Z" />
<glyph unicode="&#xb7;" glyph-name="middot" horiz-adv-x="286" d="M162 264Q120 264 95 283T69 340Q69 387 96 415T173 444Q215 444 240 424T266 367Q266 320 238 292T162 264Z" />
<glyph unicode="&#xb8;" glyph-name="cedilla" horiz-adv-x="500" d="M141 6L187 29Q243 18 273 -11T303 -85Q303 -126 284 -155T233 -201T161 -217Q123 -217 95 -206T47 -175L91 -102Q103 -113 121 -119T154 -125Q180 -125 196 -108T212 -68Q212 -44 195 -26T141 6Z" />
<glyph unicode="&#xb9;" glyph-name="uni00B9" horiz-adv-x="278" d="M130 334L178 544Q180 553 184 567T192 594T196 607Q173 593 141 582T86 568L106 666Q131 671 158 681T208 704T248 730H344L252 334H130Z" />
<glyph unicode="&#xba;" glyph-name="ordmasculine" horiz-adv-x="413" d="M245 306Q167 306 125 348T82 457Q82 512 104 558T171 633T278 662Q355 662 397 621T440 512Q440 458 418 411T352 335T245 306ZM13 151L34 240H375L354 151H13ZM248 393Q271 393 286
414T310 465T318 521Q318 546 307 560T274 575Q252 575 236 554T212 503T204 447Q204 422 215 408T248 393Z" />
<glyph unicode="&#xbb;" glyph-name="guillemotright" horiz-adv-x="576" d="M-19 69L174 298L180 203L77 461H216L299 265L131 69H-19ZM217 69L410 298L416 203L313 461H452L535 265L367 69H217Z" />
<glyph unicode="&#xbc;" glyph-name="onequarter" horiz-adv-x="839" d="M371 525L419 735Q421 744 425 758T433 785T437 798Q414 784 382 773T327 759L347 857Q372 862 399 872T449 895T489 921H585L493 525H371ZM58 0L674 661H801L184 0H58ZM598 -3L617 81H440L459
157Q468 169 474 176T490 196T518 230L652 393H795L743 162H810L791 81H724L705 -3H598ZM562 162H636L671 309L589 195Q584 188 579 182T570 172T562 162Z" />
<glyph unicode="&#xbd;" glyph-name="onehalf" horiz-adv-x="922" d="M371 525L419 735Q421 744 425 758T433 785T437 798Q414 784 382 773T327 759L347 857Q372 862 399 872T449 895T489 921H585L493 525H371ZM58 0L674 661H801L184 0H58ZM522 -3L541 79Q582
100 622 122T695 168T748 215T768 264Q768 286 758 294T732 303Q708 303 694 285T675 235L562 266Q575 328 619 363T742 399Q814 399 852 367T891 288Q891 246 873 216T826 163T762 124T696 92V91Q712 92 731 92T769 93H865L842 -3H522Z" />
<glyph unicode="&#xbe;" glyph-name="threequarters" horiz-adv-x="928" d="M468 518Q392 518 348 551T298 640L411 661Q413 634 427 621T464 607Q485 607 497 619T510 652Q510 671 499 680T465 689Q459 689 454 689T444 687L461 756Q467 755 473 754T486 753Q511
753 522 765T534 796Q534 814 523 823T493 832Q475 832 462 822T443 791L338 827Q352 872 394 899T506 927Q570 927 612 900T654 822Q654 781 630 752T563 719L562 717Q591 714 611 697T631 645Q631 604 609 576T549 533T468 518ZM147 0L763 661H890L273 0H147ZM687
-3L706 81H529L548 157Q557 169 563 176T579 196T607 230L741 393H884L832 162H899L880 81H813L794 -3H687ZM651 162H725L760 309L678 195Q673 188 668 182T659 172T651 162Z" />
<glyph unicode="&#xbf;" glyph-name="questiondown" horiz-adv-x="587" d="M385 287L350 134Q296 134 253 125T184 93T158 29Q158 -2 179 -17T233 -33Q275 -33 300 -9T338 58L494 -3Q479 -48 444 -85T353 -145T214 -168Q144 -168 91 -147T9 -87T-21 7Q-21 68 6
112T85 182T214 215L235 287H385ZM338 509Q379 509 403 491T428 437Q428 393 402 366T327 339Q287 339 262 358T237 412Q237 456 264 482T338 509Z" />
<glyph unicode="&#xc0;" glyph-name="Agrave" horiz-adv-x="661" d="M-55 0L322 660H530L599 0H436L425 155H206L124 0H-55ZM268 272H419L402 528L268 272ZM476 886L507 723H396L328 886H476Z" />
<glyph unicode="&#xc1;" glyph-name="Aacute" horiz-adv-x="661" d="M-55 0L322 660H530L599 0H436L425 155H206L124 0H-55ZM268 272H419L402 528L268 272ZM462 886H619L493 723H366L462 886Z" />
<glyph unicode="&#xc2;" glyph-name="Acircumflex" horiz-adv-x="661" d="M-55 0L322 660H530L599 0H436L425 155H206L124 0H-55ZM268 272H419L402 528L268 272ZM557 886L619 723H507L462 814L377 723H253L391 886H557Z" />
<glyph unicode="&#xc3;" glyph-name="Atilde" horiz-adv-x="661" d="M-55 0L322 660H530L599 0H436L425 155H206L124 0H-55ZM268 272H419L402 528L268 272ZM649 878Q637 798 598 759T509 719Q483 719 466 728T435 748T410 769T384 778Q368 778 358 763T341 720H248Q260
800 298 839T386 879Q409 879 426 870T457 850T484 829T512 820Q527 820 537 835T555 878H649Z" />
<glyph unicode="&#xc4;" glyph-name="Adieresis" horiz-adv-x="661" d="M-55 0L322 660H530L599 0H436L425 155H206L124 0H-55ZM268 272H419L402 528L268 272ZM552 715Q517 715 495 730T473 778Q473 825 499 847T568 869Q603 869 624 854T646 806Q646 758 621
737T552 715ZM329 715Q294 715 273 730T251 778Q251 825 277 847T346 869Q381 869 402 854T424 806Q424 758 399 737T329 715Z" />
<glyph unicode="&#xc5;" glyph-name="Aring" horiz-adv-x="661" d="M-55 0L322 660H530L599 0H436L425 155H206L124 0H-55ZM268 272H419L402 528L268 272ZM439 842Q500 842 536 810T572 728Q572 668 532 629T428 590Q368 590 331 622T294 703Q294 764 335 803T439
842ZM436 768Q414 768 398 753T381 710Q381 689 395 677T431 664Q454 664 470 679T486 722Q486 742 473 755T436 768Z" />
<glyph unicode="&#xc6;" glyph-name="AE" horiz-adv-x="915" d="M-55 0L365 660H967L936 533H645L613 391H836L807 271H585L552 127H857L826 0H362L407 196H245L129 0H-55ZM307 308H434L486 538H449L307 308Z" />
<glyph unicode="&#xc7;" glyph-name="Ccedilla" horiz-adv-x="679" d="M350 -10Q267 -10 201 24T97 121T59 273Q59 357 83 429T152 555T264 640T414 670Q523 670 595 615T685 455L520 418Q515 478 488 506T408 535Q363 535 330 511T275 446T243 360T232 271Q232
226 247 194T291 143T361 125Q410 125 439 151T487 221L641 161Q598 82 528 36T350 -10ZM255 6L301 29Q357 18 387 -11T417 -85Q417 -126 398 -155T347 -201T275 -217Q237 -217 209 -206T161 -175L205 -102Q217 -113 235 -119T268 -125Q294 -125 310 -108T326 -68Q326
-44 309 -26T255 6Z" />
<glyph unicode="&#xc8;" glyph-name="Egrave" horiz-adv-x="619" d="M14 0L167 660H674L641 527H308L277 393H541L511 268H248L217 133H562L530 0H14ZM459 886L490 723H379L311 886H459Z" />
<glyph unicode="&#xc9;" glyph-name="Eacute" horiz-adv-x="619" d="M14 0L167 660H674L641 527H308L277 393H541L511 268H248L217 133H562L530 0H14ZM452 886H609L483 723H356L452 886Z" />
<glyph unicode="&#xca;" glyph-name="Ecircumflex" horiz-adv-x="619" d="M14 0L167 660H674L641 527H308L277 393H541L511 268H248L217 133H562L530 0H14ZM550 886L612 723H500L455 814L370 723H246L384 886H550Z" />
<glyph unicode="&#xcb;" glyph-name="Edieresis" horiz-adv-x="619" d="M14 0L167 660H674L641 527H308L277 393H541L511 268H248L217 133H562L530 0H14ZM545 715Q510 715 488 730T466 778Q466 825 492 847T561 869Q596 869 617 854T639 806Q639 758 614 737T545
715ZM322 715Q287 715 266 730T244 778Q244 825 270 847T339 869Q374 869 395 854T417 806Q417 758 392 737T322 715Z" />
<glyph unicode="&#xcc;" glyph-name="Igrave" horiz-adv-x="316" d="M339 660L186 0H14L167 660H339ZM293 886L324 723H213L145 886H293Z" />
<glyph unicode="&#xcd;" glyph-name="Iacute" horiz-adv-x="316" d="M339 660L186 0H14L167 660H339ZM297 886H454L328 723H201L297 886Z" />
<glyph unicode="&#xce;" glyph-name="Icircumflex" horiz-adv-x="316" d="M339 660L186 0H14L167 660H339ZM387 886L449 723H337L292 814L207 723H83L221 886H387Z" />
<glyph unicode="&#xcf;" glyph-name="Idieresis" horiz-adv-x="306" d="M368 715Q334 715 313 730T291 777Q291 821 315 845T386 869Q421 869 441 854T462 807Q462 762 438 739T368 715ZM161 715Q127 715 106 730T84 777Q84 821 108 845T179 869Q214 869 234 854T254
807Q254 762 230 739T161 715ZM338 660L185 0H13L166 660H338Z" />
<glyph unicode="&#xd0;" glyph-name="Eth" horiz-adv-x="732" d="M14 270L41 390H427L400 270H14ZM38 0L191 660H421Q514 660 576 626T671 532T703 392Q703 305 678 233T606 109T491 29T339 0H38ZM240 130H333Q381 130 418 152T479 212T516 296T529 390Q529 432
515 463T473 512T402 530H333L240 130Z" />
<glyph unicode="&#xd1;" glyph-name="Ntilde" horiz-adv-x="728" d="M14 0L167 660H351L465 297L494 189H495L523 327L600 660H751L598 0H417L299 357L269 465H267L242 333L166 0H14ZM682 878Q670 798 631 759T542 719Q516 719 499 728T468 748T443 769T417 778Q401
778 391 763T374 720H281Q293 800 331 839T419 879Q442 879 459 870T490 850T517 829T545 820Q560 820 570 835T588 878H682Z" />
<glyph unicode="&#xd2;" glyph-name="Ograve" horiz-adv-x="722" d="M348 -10Q267 -10 202 24T98 123T60 279Q60 362 83 433T152 557T263 640T412 670Q493 670 558 636T661 537T699 381Q699 299 676 228T607 103T497 20T348 -10ZM355 125Q398 125 430 149T483
213T516 300T527 392Q527 438 513 469T471 518T405 535Q362 535 330 511T276 448T244 361T233 268Q233 223 247 191T289 142T355 125ZM476 886L507 723H396L328 886H476Z" />
<glyph unicode="&#xd3;" glyph-name="Oacute" horiz-adv-x="722" d="M348 -10Q267 -10 202 24T98 123T60 279Q60 362 83 433T152 557T263 640T412 670Q493 670 558 636T661 537T699 381Q699 299 676 228T607 103T497 20T348 -10ZM355 125Q398 125 430 149T483
213T516 300T527 392Q527 438 513 469T471 518T405 535Q362 535 330 511T276 448T244 361T233 268Q233 223 247 191T289 142T355 125ZM472 886H629L503 723H376L472 886Z" />
<glyph unicode="&#xd4;" glyph-name="Ocircumflex" horiz-adv-x="722" d="M348 -10Q267 -10 202 24T98 123T60 279Q60 362 83 433T152 557T263 640T412 670Q493 670 558 636T661 537T699 381Q699 299 676 228T607 103T497 20T348 -10ZM355 125Q398 125 430 149T483
213T516 300T527 392Q527 438 513 469T471 518T405 535Q362 535 330 511T276 448T244 361T233 268Q233 223 247 191T289 142T355 125ZM567 886L629 723H517L472 814L387 723H263L401 886H567Z" />
<glyph unicode="&#xd5;" glyph-name="Otilde" horiz-adv-x="722" d="M348 -10Q267 -10 202 24T98 123T60 279Q60 362 83 433T152 557T263 640T412 670Q493 670 558 636T661 537T699 381Q699 299 676 228T607 103T497 20T348 -10ZM355 125Q398 125 430 149T483
213T516 300T527 392Q527 438 513 469T471 518T405 535Q362 535 330 511T276 448T244 361T233 268Q233 223 247 191T289 142T355 125ZM659 878Q647 798 608 759T519 719Q493 719 476 728T445 748T420 769T394 778Q378 778 368 763T351 720H258Q270 800 308 839T396
879Q419 879 436 870T467 850T494 829T522 820Q537 820 547 835T565 878H659Z" />
<glyph unicode="&#xd6;" glyph-name="Odieresis" horiz-adv-x="722" d="M348 -10Q267 -10 202 24T98 123T60 279Q60 362 83 433T152 557T263 640T412 670Q493 670 558 636T661 537T699 381Q699 299 676 228T607 103T497 20T348 -10ZM355 125Q398 125 430 149T483
213T516 300T527 392Q527 438 513 469T471 518T405 535Q362 535 330 511T276 448T244 361T233 268Q233 223 247 191T289 142T355 125ZM562 715Q527 715 505 730T483 778Q483 825 509 847T578 869Q613 869 634 854T656 806Q656 758 631 737T562 715ZM339 715Q304
715 283 730T261 778Q261 825 287 847T356 869Q391 869 412 854T434 806Q434 758 409 737T339 715Z" />
<glyph unicode="&#xd7;" glyph-name="multiply" horiz-adv-x="604" d="M111 78L32 182L516 574L595 471L111 78ZM420 78L104 493L205 574L522 159L420 78Z" />
<glyph unicode="&#xd8;" glyph-name="Oslash" horiz-adv-x="722" d="M242 126L202 177L519 544L554 490L242 126ZM26 -17L160 135L202 88L106 -17H26ZM574 507L554 576L644 678H725L574 507ZM348 -10Q267 -10 202 24T98 123T60 279Q60 362 83 433T152 557T263
640T412 670Q493 670 558 636T661 537T699 381Q699 299 676 228T607 103T497 20T348 -10ZM355 125Q398 125 430 149T483 213T516 300T527 392Q527 438 513 469T471 518T405 535Q362 535 330 511T276 448T244 361T233 268Q233 223 247 191T289 142T355 125Z" />
<glyph unicode="&#xd9;" glyph-name="Ugrave" horiz-adv-x="707" d="M324 -10Q227 -10 162 26T71 131T68 293L154 660H326L237 269Q227 223 237 191T274 142T340 125Q393 125 422 158T467 255L561 660H732L637 250Q608 123 533 57T324 -10ZM482 878L513 715H402L334
878H482Z" />
<glyph unicode="&#xda;" glyph-name="Uacute" horiz-adv-x="707" d="M324 -10Q227 -10 162 26T71 131T68 293L154 660H326L237 269Q227 223 237 191T274 142T340 125Q393 125 422 158T467 255L561 660H732L637 250Q608 123 533 57T324 -10ZM478 878H635L509 715H382L478
878Z" />
<glyph unicode="&#xdb;" glyph-name="Ucircumflex" horiz-adv-x="707" d="M324 -10Q227 -10 162 26T71 131T68 293L154 660H326L237 269Q227 223 237 191T274 142T340 125Q393 125 422 158T467 255L561 660H732L637 250Q608 123 533 57T324 -10ZM573 878L635 715H523L478
806L393 715H269L407 878H573Z" />
<glyph unicode="&#xdc;" glyph-name="Udieresis" horiz-adv-x="707" d="M324 -10Q227 -10 162 26T71 131T68 293L154 660H326L237 269Q227 223 237 191T274 142T340 125Q393 125 422 158T467 255L561 660H732L637 250Q608 123 533 57T324 -10ZM568 707Q533 707
511 722T489 770Q489 817 515 839T584 861Q619 861 640 846T662 798Q662 750 637 729T568 707ZM345 707Q310 707 289 722T267 770Q267 817 293 839T362 861Q397 861 418 846T440 798Q440 750 415 729T345 707Z" />
<glyph unicode="&#xdd;" glyph-name="Yacute" horiz-adv-x="643" d="M177 0L234 245L106 660H272L323 478L347 368L416 480L542 660H726L403 233L349 0H177ZM437 878H594L468 715H341L437 878Z" />
<glyph unicode="&#xde;" glyph-name="Thorn" horiz-adv-x="660" d="M142 114L171 243H358Q396 243 421 258T460 297T473 351Q473 386 450 407T377 429H210L241 558H397Q513 558 578 506T643 361Q643 289 609 233T513 146T366 114H142ZM14 0L167 660H339L186 0H14Z" />
<glyph unicode="&#xdf;" glyph-name="germandbls" horiz-adv-x="630" d="M360 -10Q314 -10 278 -2T222 21L266 135Q280 126 298 120T338 114Q368 114 388 128T420 165T431 215Q431 255 405 277T330 299Q322 299 315 299T299 297L335 418Q345 417 353 417T370 416Q403
416 425 429T460 466T472 519Q472 545 462 561T433 586T393 594Q347 594 321 566T279 472L170 0H0L114 494Q140 607 212 662T407 717Q480 717 531 695T608 635T635 546Q635 488 612 447T548 383T455 357V355Q492 352 522 335T570 286T588 210Q588 145 559 95T479
18T360 -10Z" />
<glyph unicode="&#xe0;" glyph-name="agrave" horiz-adv-x="619" d="M200 -9Q152 -9 114 14T53 82T31 190Q31 251 48 308T97 410T174 483T274 510Q323 510 363 483T415 395L438 500H608L493 0H338L356 94Q332 46 291 19T200 -9ZM275 115Q299 115 319 131T354 173T377
232T386 295Q386 323 377 343T352 374T313 385Q277 385 252 357T213 289T199 210Q199 180 207 159T233 127T275 115ZM385 738L415 565H298L229 738H385Z" />
<glyph unicode="&#xe1;" glyph-name="aacute" horiz-adv-x="619" d="M200 -9Q152 -9 114 14T53 82T31 190Q31 251 48 308T97 410T174 483T274 510Q323 510 363 483T415 395L438 500H608L493 0H338L356 94Q332 46 291 19T200 -9ZM275 115Q299 115 319 131T354 173T377
232T386 295Q386 323 377 343T352 374T313 385Q277 385 252 357T213 289T199 210Q199 180 207 159T233 127T275 115ZM382 738H546L398 565H272L382 738Z" />
<glyph unicode="&#xe2;" glyph-name="acircumflex" horiz-adv-x="619" d="M200 -9Q152 -9 114 14T53 82T31 190Q31 251 48 308T97 410T174 483T274 510Q323 510 363 483T415 395L438 500H608L493 0H338L356 94Q332 46 291 19T200 -9ZM275 115Q299 115 319 131T354
173T377 232T386 295Q386 323 377 343T352 374T313 385Q277 385 252 357T213 289T199 210Q199 180 207 159T233 127T275 115ZM162 559L307 732H471L535 559H418L373 647L290 559H162Z" />
<glyph unicode="&#xe3;" glyph-name="atilde" horiz-adv-x="619" d="M200 -9Q152 -9 114 14T53 82T31 190Q31 251 48 308T97 410T174 483T274 510Q323 510 363 483T415 395L438 500H608L493 0H338L356 94Q332 46 291 19T200 -9ZM275 115Q299 115 319 131T354 173T377
232T386 295Q386 323 377 343T352 374T313 385Q277 385 252 357T213 289T199 210Q199 180 207 159T233 127T275 115ZM566 718Q554 638 515 599T426 559Q400 559 383 568T352 588T327 609T301 618Q285 618 275 603T258 560H165Q177 640 215 679T303 719Q326 719
343 710T374 690T401 669T429 660Q444 660 454 675T472 718H566Z" />
<glyph unicode="&#xe4;" glyph-name="adieresis" horiz-adv-x="619" d="M200 -9Q152 -9 114 14T53 82T31 190Q31 251 48 308T97 410T174 483T274 510Q323 510 363 483T415 395L438 500H608L493 0H338L356 94Q332 46 291 19T200 -9ZM275 115Q299 115 319 131T354
173T377 232T386 295Q386 323 377 343T352 374T313 385Q277 385 252 357T213 289T199 210Q199 180 207 159T233 127T275 115ZM469 555Q434 555 412 570T390 618Q390 665 416 687T485 709Q520 709 541 694T563 646Q563 598 538 577T469 555ZM246 555Q211 555 190
570T168 618Q168 665 194 687T263 709Q298 709 319 694T341 646Q341 598 316 577T246 555Z" />
<glyph unicode="&#xe5;" glyph-name="aring" horiz-adv-x="619" d="M200 -9Q152 -9 114 14T53 82T31 190Q31 251 48 308T97 410T174 483T274 510Q323 510 363 483T415 395L438 500H608L493 0H338L356 94Q332 46 291 19T200 -9ZM275 115Q299 115 319 131T354 173T377
232T386 295Q386 323 377 343T352 374T313 385Q277 385 252 357T213 289T199 210Q199 180 207 159T233 127T275 115ZM374 803Q435 803 471 771T507 689Q507 629 467 590T363 551Q303 551 266 583T229 664Q229 725 270 764T374 803ZM371 729Q349 729 333 714T316
671Q316 650 330 638T366 625Q389 625 405 640T421 683Q421 703 408 716T371 729Z" />
<glyph unicode="&#xe6;" glyph-name="ae" horiz-adv-x="874" d="M183 -10Q105 -10 62 28T18 128Q18 177 42 208T104 257T186 280L363 302L350 214L251 200Q214 195 193 185T172 146Q172 123 186 111T229 99Q264 99 286 117T316 171L345 299Q347 306 348 313T349
328Q349 359 331 376T280 394Q245 394 224 375T190 319L52 353Q71 424 128 467T285 510Q335 510 371 495T429 454T454 393L423 404Q457 451 506 480T631 510Q695 510 742 483T815 409T841 300Q841 276 838 253T828 206H479L489 299H678Q678 304 678 308T679 318Q679
342 670 358T647 383T614 391Q580 391 557 374T519 329T499 269T493 206Q493 175 505 153T538 120T585 109Q619 109 640 125T673 166L813 112Q787 55 725 23T585 -9Q528 -9 483 12T409 69T373 153L409 150Q401 109 373 72T298 13T183 -10Z" />
<glyph unicode="&#xe7;" glyph-name="ccedilla" horiz-adv-x="554" d="M280 -10Q203 -10 148 19T64 99T34 216Q34 297 67 364T163 470T317 510Q384 510 435 487T515 423T545 327L382 301Q384 340 369 364T315 388Q280 388 254 360T214 288T200 202Q200 174 210
154T238 122T281 110Q307 110 329 128T361 178L513 129Q485 65 425 28T280 -10ZM193 8L239 31Q295 20 325 -9T355 -83Q355 -124 336 -153T285 -199T213 -215Q175 -215 147 -204T99 -173L143 -100Q155 -111 173 -117T206 -123Q232 -123 248 -106T264 -66Q264 -42
247 -24T193 8Z" />
<glyph unicode="&#xe8;" glyph-name="egrave" horiz-adv-x="572" d="M276 -9Q204 -9 150 19T65 97T34 216Q34 301 68 367T165 471T314 509Q385 509 435 482T511 406T538 288Q538 264 536 243T528 205H144L145 297H417L371 271Q374 283 375 293T377 315Q377 340
369 357T345 382T309 391Q275 391 252 374T216 330T198 270T192 207Q192 176 203 154T235 121T283 109Q318 109 339 125T371 167L511 112Q485 55 422 23T276 -9ZM372 738L402 565H285L216 738H372Z" />
<glyph unicode="&#xe9;" glyph-name="eacute" horiz-adv-x="572" d="M276 -9Q204 -9 150 19T65 97T34 216Q34 301 68 367T165 471T314 509Q385 509 435 482T511 406T538 288Q538 264 536 243T528 205H144L145 297H417L371 271Q374 283 375 293T377 315Q377 340
369 357T345 382T309 391Q275 391 252 374T216 330T198 270T192 207Q192 176 203 154T235 121T283 109Q318 109 339 125T371 167L511 112Q485 55 422 23T276 -9ZM369 738H533L385 565H259L369 738Z" />
<glyph unicode="&#xea;" glyph-name="ecircumflex" horiz-adv-x="572" d="M276 -9Q204 -9 150 19T65 97T34 216Q34 301 68 367T165 471T314 509Q385 509 435 482T511 406T538 288Q538 264 536 243T528 205H144L145 297H417L371 271Q374 283 375 293T377 315Q377
340 369 357T345 382T309 391Q275 391 252 374T216 330T198 270T192 207Q192 176 203 154T235 121T283 109Q318 109 339 125T371 167L511 112Q485 55 422 23T276 -9ZM149 559L294 732H458L522 559H405L360 647L277 559H149Z" />
<glyph unicode="&#xeb;" glyph-name="edieresis" horiz-adv-x="572" d="M276 -9Q204 -9 150 19T65 97T34 216Q34 301 68 367T165 471T314 509Q385 509 435 482T511 406T538 288Q538 264 536 243T528 205H144L145 297H417L371 271Q374 283 375 293T377 315Q377
340 369 357T345 382T309 391Q275 391 252 374T216 330T198 270T192 207Q192 176 203 154T235 121T283 109Q318 109 339 125T371 167L511 112Q485 55 422 23T276 -9ZM456 555Q421 555 399 570T377 618Q377 665 403 687T472 709Q507 709 528 694T550 646Q550 598
525 577T456 555ZM233 555Q198 555 177 570T155 618Q155 665 181 687T250 709Q285 709 306 694T328 646Q328 598 303 577T233 555Z" />
<glyph unicode="&#xec;" glyph-name="igrave" horiz-adv-x="288" d="M287 500L171 0H1L117 500H287ZM247 738L277 565H160L91 738H247Z" />
<glyph unicode="&#xed;" glyph-name="iacute" horiz-adv-x="288" d="M287 500L171 0H1L117 500H287ZM244 738H408L260 565H134L244 738Z" />
<glyph unicode="&#xee;" glyph-name="icircumflex" horiz-adv-x="288" d="M287 500L171 0H1L117 500H287ZM24 559L169 732H333L397 559H280L235 647L152 559H24Z" />
<glyph unicode="&#xef;" glyph-name="idieresis" horiz-adv-x="278" d="M318 555Q284 555 263 570T241 617Q241 661 265 685T335 709Q370 709 390 694T411 647Q411 602 387 579T318 555ZM110 555Q76 555 55 570T34 617Q34 661 58 685T129 709Q163 709 183 694T204
647Q204 602 180 579T110 555ZM285 500L169 0H-1L115 500H285Z" />
<glyph unicode="&#xf0;" glyph-name="eth" horiz-adv-x="591" d="M267 -10Q198 -10 146 19T65 100T36 219Q36 298 68 361T158 461T290 498Q339 498 373 482T426 435T443 361L433 347Q435 363 436 377T437 404Q437 503 391 580T259 722H406Q451 693 487 644T544
531T565 394Q565 310 546 237T488 108T395 22T267 -10ZM280 110Q306 110 327 127T362 172T385 232T393 296Q393 325 383 344T356 373T314 383Q288 383 267 365T232 319T209 259T201 199Q201 172 210 152T238 121T280 110ZM249 542L239 601L400 629L429 577L249
542ZM474 584L453 636L614 668L625 610L474 584Z" />
<glyph unicode="&#xf1;" glyph-name="ntilde" horiz-adv-x="603" d="M0 0L116 500H267L241 341L233 355Q254 430 305 470T427 510Q479 510 514 487T563 420T563 316L490 0H320L388 295Q397 335 382 357T333 380Q307 380 288 367T255 329T233 270L170 0H0ZM586
718Q574 638 535 599T446 559Q420 559 403 568T372 588T347 609T321 618Q305 618 295 603T278 560H185Q197 640 235 679T323 719Q346 719 363 710T394 690T421 669T449 660Q464 660 474 675T492 718H586Z" />
<glyph unicode="&#xf2;" glyph-name="ograve" horiz-adv-x="590" d="M275 -10Q201 -10 147 20T63 101T34 216Q34 297 67 364T163 470T315 510Q390 510 444 481T527 400T556 284Q556 204 523 137T428 30T275 -10ZM278 110Q311 110 336 139T376 211T390 298Q390
340 370 365T312 390Q279 390 254 361T215 289T200 202Q200 174 209 154T235 122T278 110ZM383 738L413 565H296L227 738H383Z" />
<glyph unicode="&#xf3;" glyph-name="oacute" horiz-adv-x="590" d="M275 -10Q201 -10 147 20T63 101T34 216Q34 297 67 364T163 470T315 510Q390 510 444 481T527 400T556 284Q556 204 523 137T428 30T275 -10ZM278 110Q311 110 336 139T376 211T390 298Q390
340 370 365T312 390Q279 390 254 361T215 289T200 202Q200 174 209 154T235 122T278 110ZM380 738H544L396 565H270L380 738Z" />
<glyph unicode="&#xf4;" glyph-name="ocircumflex" horiz-adv-x="590" d="M275 -10Q201 -10 147 20T63 101T34 216Q34 297 67 364T163 470T315 510Q390 510 444 481T527 400T556 284Q556 204 523 137T428 30T275 -10ZM278 110Q311 110 336 139T376 211T390 298Q390
340 370 365T312 390Q279 390 254 361T215 289T200 202Q200 174 209 154T235 122T278 110ZM160 559L305 732H469L533 559H416L371 647L288 559H160Z" />
<glyph unicode="&#xf5;" glyph-name="otilde" horiz-adv-x="590" d="M275 -10Q201 -10 147 20T63 101T34 216Q34 297 67 364T163 470T315 510Q390 510 444 481T527 400T556 284Q556 204 523 137T428 30T275 -10ZM278 110Q311 110 336 139T376 211T390 298Q390
340 370 365T312 390Q279 390 254 361T215 289T200 202Q200 174 209 154T235 122T278 110ZM564 718Q552 638 513 599T424 559Q398 559 381 568T350 588T325 609T299 618Q283 618 273 603T256 560H163Q175 640 213 679T301 719Q324 719 341 710T372 690T399 669T427
660Q442 660 452 675T470 718H564Z" />
<glyph unicode="&#xf6;" glyph-name="odieresis" horiz-adv-x="590" d="M275 -10Q201 -10 147 20T63 101T34 216Q34 297 67 364T163 470T315 510Q390 510 444 481T527 400T556 284Q556 204 523 137T428 30T275 -10ZM278 110Q311 110 336 139T376 211T390 298Q390
340 370 365T312 390Q279 390 254 361T215 289T200 202Q200 174 209 154T235 122T278 110ZM467 555Q432 555 410 570T388 618Q388 665 414 687T483 709Q518 709 539 694T561 646Q561 598 536 577T467 555ZM244 555Q209 555 188 570T166 618Q166 665 192 687T261
709Q296 709 317 694T339 646Q339 598 314 577T244 555Z" />
<glyph unicode="&#xf7;" glyph-name="divide" horiz-adv-x="623" d="M595 386L567 264H63L91 386H595ZM276 29Q239 29 217 47T195 98Q195 142 219 168T285 194Q322 194 344 176T366 123Q366 80 342 55T276 29ZM376 459Q339 459 317 477T295 528Q295 572 319 598T385
624Q422 624 444 606T466 553Q466 510 442 485T376 459Z" />
<glyph unicode="&#xf8;" glyph-name="oslash" horiz-adv-x="590" d="M275 -10Q201 -10 147 20T63 101T34 216Q34 297 67 364T163 470T315 510Q390 510 444 481T527 400T556 284Q556 204 523 137T428 30T275 -10ZM278 110Q311 110 336 139T376 211T390 298Q390
340 370 365T312 390Q279 390 254 361T215 289T200 202Q200 174 209 154T235 122T278 110ZM243 -23L783 523H858L317 -23H243Z" />
<glyph unicode="&#xf9;" glyph-name="ugrave" horiz-adv-x="602" d="M167 -9Q116 -9 80 14T28 79T27 181L102 500H272L204 206Q194 165 211 143T261 121Q289 121 307 135T338 173T358 230L421 500H591L475 0H324L349 159L358 144Q336 70 286 31T167 -9ZM384 734L414
561H297L228 734H384Z" />
<glyph unicode="&#xfa;" glyph-name="uacute" horiz-adv-x="602" d="M167 -9Q116 -9 80 14T28 79T27 181L102 500H272L204 206Q194 165 211 143T261 121Q289 121 307 135T338 173T358 230L421 500H591L475 0H324L349 159L358 144Q336 70 286 31T167 -9ZM381 734H545L397
561H271L381 734Z" />
<glyph unicode="&#xfb;" glyph-name="ucircumflex" horiz-adv-x="602" d="M167 -9Q116 -9 80 14T28 79T27 181L102 500H272L204 206Q194 165 211 143T261 121Q289 121 307 135T338 173T358 230L421 500H591L475 0H324L349 159L358 144Q336 70 286 31T167 -9ZM161
555L306 728H470L534 555H417L372 643L289 555H161Z" />
<glyph unicode="&#xfc;" glyph-name="udieresis" horiz-adv-x="602" d="M167 -9Q116 -9 80 14T28 79T27 181L102 500H272L204 206Q194 165 211 143T261 121Q289 121 307 135T338 173T358 230L421 500H591L475 0H324L349 159L358 144Q336 70 286 31T167 -9ZM468
551Q433 551 411 566T389 614Q389 661 415 683T484 705Q519 705 540 690T562 642Q562 594 537 573T468 551ZM245 551Q210 551 189 566T167 614Q167 661 193 683T262 705Q297 705 318 690T340 642Q340 594 315 573T245 551Z" />
<glyph unicode="&#xfd;" glyph-name="yacute" horiz-adv-x="551" d="M42 -215Q-1 -215 -36 -206T-92 -180L-45 -61Q-28 -75 -7 -82T40 -90Q69 -90 90 -79T124 -44L143 -11L58 500H231L243 231L246 109L302 228L432 500H613L296 -42Q264 -97 229 -136T149 -195T42
-215ZM388 734H552L404 561H278L388 734Z" />
<glyph unicode="&#xfe;" glyph-name="thorn" horiz-adv-x="609" d="M-49 -210L164 712H334L249 344L236 336Q252 416 302 462T421 509Q467 509 502 487T557 420T578 313Q578 252 562 194T514 90T440 17T345 -10Q306 -10 271 5T213 54T189 142L210 175L121 -210H-49ZM297
115Q332 115 357 143T396 212T410 292Q410 321 402 341T376 373T335 384Q302 384 277 357T237 289T223 204Q223 164 241 140T297 115Z" />
<glyph unicode="&#xff;" glyph-name="ydieresis" horiz-adv-x="551" d="M42 -215Q-1 -215 -36 -206T-92 -180L-45 -61Q-28 -75 -7 -82T40 -90Q69 -90 90 -79T124 -44L143 -11L58 500H231L243 231L246 109L302 228L432 500H613L296 -42Q264 -97 229 -136T149 -195T42
-215ZM475 551Q440 551 418 566T396 614Q396 661 422 683T491 705Q526 705 547 690T569 642Q569 594 544 573T475 551ZM252 551Q217 551 196 566T174 614Q174 661 200 683T269 705Q304 705 325 690T347 642Q347 594 322 573T252 551Z" />
<glyph unicode="&#x2013;" glyph-name="endash" horiz-adv-x="692" d="M633 335L602 200H66L97 335H633Z" />
<glyph unicode="&#x2014;" glyph-name="emdash" horiz-adv-x="1006" d="M947 335L916 200H66L97 335H947Z" />
<glyph unicode="&#x2018;" glyph-name="quoteleft" horiz-adv-x="284" d="M191 361Q143 361 116 389T88 462Q88 515 117 563T194 645T299 692L337 626Q299 619 269 603T219 569T188 533L190 530Q195 532 201 533T217 534Q250 534 270 513T290 459Q290 416 263
389T191 361Z" />
<glyph unicode="&#x2019;" glyph-name="quoteright" horiz-adv-x="284" d="M228 690Q280 690 303 662T327 589Q327 540 301 493T228 410T117 359L78 424Q116 433 146 448T197 482T228 520L226 522Q219 519 213 518T196 516Q167 516 146 538T125 592Q125 636 153
663T228 690Z" />
<glyph unicode="&#x201a;" glyph-name="quotesinglbase" horiz-adv-x="285" d="M109 172Q161 172 184 144T208 71Q208 22 182 -25T109 -108T-2 -159L-41 -94Q-3 -85 27 -70T78 -36T109 2L107 4Q100 1 94 0T77 -2Q48 -2 27 20T6 74Q6 118 34 145T109 172Z" />
<glyph unicode="&#x201c;" glyph-name="quotedblleft" horiz-adv-x="524" d="M191 361Q143 361 116 389T88 462Q88 515 117 563T194 645T299 692L337 626Q299 619 269 603T219 569T188 533L190 530Q195 532 201 533T217 534Q250 534 270 513T290 459Q290 416 263
389T191 361ZM431 361Q383 361 356 389T328 462Q328 515 357 563T434 645T539 692L577 626Q539 619 509 603T459 569T428 533L430 530Q435 532 441 533T457 534Q490 534 510 513T530 459Q530 416 503 389T431 361Z" />
<glyph unicode="&#x201d;" glyph-name="quotedblright" horiz-adv-x="524" d="M228 690Q280 690 303 662T327 589Q327 540 301 493T228 410T117 359L78 424Q116 433 146 448T197 482T228 520L226 522Q219 519 213 518T196 516Q167 516 146 538T125 592Q125 636
153 663T228 690ZM468 690Q520 690 543 662T567 589Q567 540 541 493T468 410T357 359L318 424Q356 433 386 448T437 482T468 520L466 522Q459 519 453 518T436 516Q407 516 386 538T365 592Q365 636 393 663T468 690Z" />
<glyph unicode="&#x201e;" glyph-name="quotedblbase" horiz-adv-x="526" d="M109 172Q161 172 184 144T208 71Q208 22 182 -25T109 -108T-2 -159L-41 -94Q-3 -85 27 -70T78 -36T109 2L107 4Q100 1 94 0T77 -2Q48 -2 27 20T6 74Q6 118 34 145T109 172ZM350 172Q402
172 425 144T449 71Q449 22 423 -25T350 -108T239 -159L200 -94Q238 -85 268 -70T319 -36T350 2L348 4Q341 1 335 0T318 -2Q289 -2 268 20T247 74Q247 118 275 145T350 172Z" />
<glyph unicode="&#x2022;" glyph-name="bullet" horiz-adv-x="427" d="M225 184Q160 184 120 219T80 311Q80 388 123 434T243 481Q309 481 347 446T385 355Q385 278 343 231T225 184Z" />
<glyph unicode="&#x2039;" glyph-name="guilsinglleft" horiz-adv-x="342" d="M356 461L154 226L157 322L260 69H117L37 265L207 461H356Z" />
<glyph unicode="&#x203a;" glyph-name="guilsinglright" horiz-adv-x="340" d="M-19 69L174 298L180 203L77 461H216L299 265L131 69H-19Z" />
</font>
</defs>
</svg>
