<?xml version="1.0" standalone="no"?>
<!DOCTYPE svg PUBLIC "-//W3C//DTD SVG 1.1//EN" "http://www.w3.org/Graphics/SVG/1.1/DTD/svg11.dtd">
<svg xmlns="http://www.w3.org/2000/svg">
<defs >
<font id="KantumruyPro" horiz-adv-x="625" ><font-face
    font-family="Kantumruy Pro Medium"
    units-per-em="1000"
    panose-1="0 0 0 0 0 0 0 0 0 0"
    ascent="920"
    descent="-260"
    alphabetic="0" />
<glyph unicode=" " glyph-name="space" horiz-adv-x="316" />
<glyph unicode="!" glyph-name="exclam" horiz-adv-x="273" d="M82 207L110 395L172 660H286L225 395L166 207H82ZM89 -9Q59 -9 41 7T22 50Q22 86 43 107T99 129Q128 129 147 113T166 69Q166 33 145 12T89 -9Z" />
<glyph unicode="&quot;" glyph-name="quotedbl" horiz-adv-x="405" d="M451 685L367 434H287L345 685H451ZM278 685L194 434H114L172 685H278Z" />
<glyph unicode="#" glyph-name="numbersign" horiz-adv-x="642" d="M300 0L517 660H602L384 0H300ZM29 178V250H583L582 178H29ZM69 0L286 660H371L153 0H69ZM96 411V483H649V411H96Z" />
<glyph unicode="$" glyph-name="dollar" horiz-adv-x="611" d="M314 0Q245 0 187 20T87 81T20 179L100 233Q117 182 151 149T229 99T321 83Q363 83 391 97T435 136T450 187Q450 208 441 223T413 250T365 269L264 299Q219 312 185 335T132 391T113 464Q113 522
143 566T228 635T353 660Q413 660 462 644T549 594T608 509L530 458Q514 504 486 530T423 567T348 578Q283 578 249 548T214 478Q214 448 236 424T296 389L412 355Q456 343 486 322T532 271T549 204Q549 141 517 96T432 25T314 0ZM191 -96L389 756H467L270 -96H191Z"
/>
<glyph unicode="%" glyph-name="percent" horiz-adv-x="919" d="M125 0L729 660H830L227 0H125ZM241 303Q171 303 130 346T89 458Q89 515 113 563T179 640T277 669Q348 669 389 627T430 515Q430 458 406 410T340 333T241 303ZM247 381Q277 381 298 400T331 450T343
512Q343 548 325 569T272 591Q242 591 220 572T187 523T176 460Q176 424 194 403T247 381ZM679 -9Q608 -9 568 34T527 145Q527 203 551 251T617 328T715 357Q786 357 826 314T867 203Q867 146 843 98T777 20T679 -9ZM684 69Q715 69 736 88T769 138T780 200Q780
236 762 258T710 280Q679 280 658 261T625 211T614 148Q614 113 632 91T684 69Z" />
<glyph unicode="&amp;" glyph-name="ampersand" horiz-adv-x="602" d="M224 -9Q126 -9 73 40T19 171Q19 232 45 274T120 344T231 386L270 403Q310 415 342 431T394 470T413 529Q413 560 397 576T354 593Q319 593 296 567T273 494Q273 465 281 428T308 347T354
250Q382 194 415 152T486 87T563 65L544 -11H538Q461 -11 398 45T282 197Q249 257 227 308T194 405T183 489Q183 544 205 584T268 647T360 670Q426 670 463 635T500 546Q500 489 473 449T395 382T280 337L273 330Q226 316 191 297T136 251T116 180Q116 127 150
99T239 70Q284 70 316 87T380 132L396 143Q428 174 452 219T486 321L566 317Q552 249 519 188T440 86L421 72Q381 38 334 15T224 -9Z" />
<glyph unicode="&apos;" glyph-name="quotesingle" horiz-adv-x="232" d="M278 685L194 434H114L172 685H278Z" />
<glyph unicode="(" glyph-name="parenleft" horiz-adv-x="354" d="M176 -188Q122 -111 92 -15T62 184Q62 270 84 352T149 508T252 642T391 745L432 687Q343 629 283 548T193 371T162 169Q162 83 182 3T240 -142L176 -188Z" />
<glyph unicode=")" glyph-name="parenright" horiz-adv-x="354" d="M179 745Q234 668 263 571T293 373Q293 286 271 204T206 48T103 -86T-36 -188L-77 -131Q13 -72 73 8T163 186T193 388Q193 474 173 554T115 698L179 745Z" />
<glyph unicode="*" glyph-name="asterisk" horiz-adv-x="567" d="M397 265L346 377L328 438L282 382L185 287L130 344L228 438L284 482L224 502L114 554L153 627L263 573L318 538L324 607L350 730H436L404 598L380 532L447 553L575 580L581 501L454 476L384 469L419
414L470 303L397 265Z" />
<glyph unicode="+" glyph-name="plus" horiz-adv-x="604" d="M423 572L306 66H214L330 572H423ZM574 363L554 276H63L83 363H574Z" />
<glyph unicode="," glyph-name="comma" horiz-adv-x="257" d="M94 133Q131 133 150 109T169 48Q169 7 148 -34T87 -106T-7 -150L-35 -98Q3 -91 30 -76T74 -41T99 0L97 1Q92 -2 86 -4T70 -6Q45 -6 30 13T15 55Q15 90 37 111T94 133Z" />
<glyph unicode="-" glyph-name="hyphen" horiz-adv-x="509" d="M439 314L416 215H77L100 314H439Z" />
<glyph unicode="." glyph-name="period" horiz-adv-x="263" d="M84 -9Q54 -9 35 7T15 52Q15 88 37 110T94 133Q124 133 142 117T161 72Q161 35 140 13T84 -9Z" />
<glyph unicode="/" glyph-name="slash" horiz-adv-x="429" d="M518 723L55 -70H-53L409 723H518Z" />
<glyph unicode="0" glyph-name="zero" horiz-adv-x="618" d="M291 -9Q220 -9 170 22T94 111T68 243Q68 278 72 313T84 381Q102 461 139 526T234 631T372 670Q441 670 488 639T561 551T587 419Q587 383 584 349T572 284Q555 204 518 137T425 31T291 -9ZM297 81Q340
81 372 109T428 186T466 296Q474 329 478 363T482 424Q482 505 451 543T365 581Q320 581 286 553T228 476T190 367Q174 298 174 238Q174 155 209 118T297 81Z" />
<glyph unicode="1" glyph-name="one" horiz-adv-x="381" d="M119 0L219 440Q224 459 227 475T236 508T248 542Q228 523 197 505T134 474T73 455L82 553Q115 561 154 578T230 618T289 660H378L225 0H119Z" />
<glyph unicode="2" glyph-name="two" horiz-adv-x="557" d="M15 0L36 85Q111 138 180 186T304 283T389 379T421 480Q421 528 393 552T320 577Q261 577 224 538T172 436L85 485Q107 567 169 618T329 670Q393 670 438 648T507 586T532 497Q532 429 498 372T410 265T294
172T173 89V88Q187 89 212 90T254 91H488L465 0H15Z" />
<glyph unicode="3" glyph-name="three" horiz-adv-x="555" d="M264 -10Q167 -10 107 41T33 177L140 204Q146 146 178 114T267 81Q305 81 331 97T372 141T386 200Q386 252 354 272T276 293Q269 293 263 293T250 291L269 377Q279 376 288 375T308 374Q346 374 372
387T413 425T428 486Q428 534 397 556T325 579Q273 579 245 553T201 485L108 529Q135 597 194 634T335 671Q394 671 439 651T509 594T534 504Q534 455 515 417T462 356T385 330L384 327Q432 320 462 288T492 200Q492 134 460 87T376 15T264 -10Z" />
<glyph unicode="4" glyph-name="four" horiz-adv-x="572" d="M272 0L310 165H16L36 248Q52 268 66 286T105 335L385 660H525L429 248H548L528 165H410L372 0H272ZM127 248H329L404 571L200 329Q182 308 164 288T127 248Z" />
<glyph unicode="5" glyph-name="five" horiz-adv-x="557" d="M262 -10Q201 -10 154 13T77 75T39 160L145 192Q148 164 161 139T200 97T270 80Q313 80 341 101T383 156T398 230Q398 288 364 315T281 343Q247 343 223 333T174 303L92 326L200 660H558L536 569H266L205
381Q228 401 259 411T326 422Q376 422 416 401T479 340T503 242Q503 169 473 112T390 23T262 -10Z" />
<glyph unicode="6" glyph-name="six" horiz-adv-x="577" d="M302 -10Q227 -10 175 21T97 110T70 246Q70 327 89 402T146 538T244 634T383 670Q458 670 513 632T582 518L483 482Q478 527 447 552T374 577Q327 577 292 554T233 490T194 402T174 304Q192 354 241
381T346 409Q429 409 478 360T528 229Q528 159 500 105T422 21T302 -10ZM304 78Q342 78 369 96T410 146T424 216Q424 265 394 296T307 327Q268 327 240 309T198 261T183 196Q183 170 191 148T216 111T255 87T304 78Z" />
<glyph unicode="7" glyph-name="seven" horiz-adv-x="543" d="M124 660H599L577 572Q494 497 432 410T327 221T260 0H148Q179 166 268 321T506 597L513 568H101L124 660Z" />
<glyph unicode="8" glyph-name="eight" horiz-adv-x="600" d="M293 -10Q226 -10 169 12T76 75T41 177Q41 228 63 266T126 328T223 360L221 349Q196 360 177 379T148 423T137 478Q137 536 165 579T243 646T355 670Q416 670 466 650T545 593T575 502Q575 435 535
387T423 324L422 337Q455 323 478 302T515 253T528 191Q528 129 498 84T414 15T293 -10ZM295 79Q353 79 387 109T421 191Q421 226 402 250T350 287T281 301Q243 301 214 287T168 247T150 187Q150 152 170 128T222 92T295 79ZM353 380Q387 380 413 394T454 432T469
489Q469 530 439 556T356 583Q322 583 296 569T255 530T240 474Q240 448 254 427T293 393T353 380Z" />
<glyph unicode="9" glyph-name="nine" horiz-adv-x="590" d="M250 -10Q161 -10 106 38T38 165L143 195Q147 165 160 139T198 97T259 81Q305 81 339 102T396 162T434 248T453 350Q442 317 418 294T361 260T296 249Q237 249 193 273T125 340T101 439Q101 504 131
556T213 639T334 670Q409 670 458 640T533 553T558 417Q558 337 539 261T482 123T386 26T250 -10ZM323 332Q361 332 389 350T432 398T447 464Q447 500 433 526T392 566T332 580Q292 580 264 563T221 517T205 450Q205 402 235 367T323 332Z" />
<glyph unicode=":" glyph-name="colon" horiz-adv-x="284" d="M180 372Q154 372 138 386T121 424Q121 456 140 475T189 495Q215 495 231 481T248 442Q248 410 229 391T180 372ZM93 -5Q67 -5 51 9T34 48Q34 80 53 99T102 118Q128 118 144 104T161 65Q161 33 143 14T93 -5Z" />
<glyph unicode=";" glyph-name="semicolon" horiz-adv-x="289" d="M105 133Q142 133 161 109T180 48Q180 7 159 -34T98 -106T5 -150L-24 -98Q14 -91 41 -76T85 -41T110 0L108 1Q103 -2 97 -4T81 -6Q56 -6 41 13T26 55Q26 90 48 111T105 133ZM193 509Q223 509 242
493T261 449Q261 412 239 390T183 367Q154 367 135 383T115 429Q115 465 137 487T193 509Z" />
<glyph unicode="&lt;" glyph-name="less" horiz-adv-x="592" d="M610 575L584 466L163 297L505 120L482 22L67 245L92 352L610 575Z" />
<glyph unicode="=" glyph-name="equal" horiz-adv-x="604" d="M585 455L565 369H94L113 455H585ZM538 249L518 163H46L66 249H538Z" />
<glyph unicode="&gt;" glyph-name="greater" horiz-adv-x="592" d="M-7 22L19 131L440 300L98 477L121 575L536 352L511 245L-7 22Z" />
<glyph unicode="?" glyph-name="question" horiz-adv-x="540" d="M194 206L229 355Q291 355 337 368T408 410T434 487Q434 532 404 554T327 576Q271 576 236 547T183 469L89 518Q106 561 139 595T221 648T335 668Q397 668 444 648T519 590T546 498Q546 436 518
392T439 322T317 292L296 206H194ZM211 -9Q182 -9 163 7T144 50Q144 86 165 107T221 129Q250 129 269 113T288 69Q288 34 267 13T211 -9Z" />
<glyph unicode="@" glyph-name="at" horiz-adv-x="927" d="M456 -190Q340 -190 251 -144T110 -11T59 197Q59 299 92 384T184 531T324 627T502 661Q590 661 659 635T776 561T849 445T875 298Q875 227 857 171T810 76T743 16T667 -5Q631 -5 606 9T569 47T560 104Q538
58 495 32T405 5Q357 5 320 29T263 97T242 199Q242 253 258 301T303 387T373 446T462 467Q515 467 553 438T603 354L627 458H721L649 147Q646 135 645 125T644 106Q644 79 657 69T689 59Q713 59 735 75T775 122T803 197T814 297Q814 368 792 424T728 519T629 579T497
600Q417 600 350 572T233 490T156 363T128 197Q128 93 173 20T294 -92T459 -130Q524 -130 569 -116T644 -85L667 -139Q641 -152 612 -164T545 -183T456 -190ZM442 80Q481 80 511 107T559 179T577 275Q577 311 565 337T530 377T477 391Q436 391 404 365T354 295T336
201Q336 163 348 136T384 95T442 80Z" />
<glyph unicode="A" glyph-name="A" horiz-adv-x="634" d="M-43 0L346 660H479L561 0H456L435 180H176L74 0H-43ZM226 266H427L394 563L226 266Z" />
<glyph unicode="B" glyph-name="B" horiz-adv-x="647" d="M34 0L187 660H442Q527 660 573 620T619 510Q619 462 601 425T551 362T475 328V327Q525 320 555 285T585 201Q585 107 520 54T339 0H34ZM162 87H328Q398 87 436 117T474 203Q474 229 463 247T429 275T370
285H207L162 87ZM227 373H377Q419 373 448 388T492 430T508 492Q508 534 481 552T410 571H273L227 373Z" />
<glyph unicode="C" glyph-name="C" horiz-adv-x="666" d="M352 -10Q275 -10 212 22T111 118T74 272Q74 350 96 421T162 549T269 637T414 670Q512 670 577 621T664 475L556 445Q543 515 506 546T407 578Q353 578 312 552T242 482T200 385T186 278Q186 217 208 173T269
106T358 82Q418 82 453 110T513 184L613 141Q572 71 510 31T352 -10Z" />
<glyph unicode="D" glyph-name="D" horiz-adv-x="693" d="M35 0L188 660H390Q476 660 535 626T626 531T658 392Q658 307 633 236T559 111T445 29T295 0H35ZM164 90H300Q357 90 402 114T480 180T528 275T545 384Q545 438 527 480T472 546T377 570H275L164 90Z" />
<glyph unicode="E" glyph-name="E" horiz-adv-x="611" d="M34 0L187 660H651L628 569H274L230 378H509L488 289H210L164 91H533L511 0H34Z" />
<glyph unicode="F" glyph-name="F" horiz-adv-x="576" d="M615 569H274L229 376H512L490 284H209L143 0H34L187 660H637L615 569Z" />
<glyph unicode="G" glyph-name="G" horiz-adv-x="696" d="M327 -8Q258 -8 200 25T108 122T74 273Q74 351 96 422T163 549T271 637T419 670Q482 670 534 651T624 590T676 482L570 455Q556 519 516 549T415 579Q360 579 318 555T246 488T201 393T185 284Q185 221
205 176T264 106T356 82Q404 82 440 99T500 148T534 221L542 251H356L377 335H652L569 0H491L522 145L532 134Q515 87 486 56T418 8T327 -8Z" />
<glyph unicode="H" glyph-name="H" horiz-adv-x="712" d="M715 660L562 0H453L606 660H715ZM296 660L143 0H34L187 660H296ZM596 380L575 288H156L177 380H596Z" />
<glyph unicode="I" glyph-name="I" horiz-adv-x="293" d="M296 660L143 0H34L187 660H296Z" />
<glyph unicode="J" glyph-name="J" horiz-adv-x="555" d="M222 -8Q145 -8 96 27T32 122T43 254L149 259Q121 177 143 130T231 82Q288 82 316 118T363 237L460 660H569L467 216Q457 171 440 131T394 59T324 10T222 -8Z" />
<glyph unicode="K" glyph-name="K" horiz-adv-x="638" d="M34 0L187 660H296L223 344L572 660H708L406 386L560 0H444L321 314L188 195L143 0H34Z" />
<glyph unicode="L" glyph-name="L" horiz-adv-x="575" d="M165 91H511L489 0H34L187 660H296L165 91Z" />
<glyph unicode="M" glyph-name="M" horiz-adv-x="845" d="M34 0L187 660H332L376 267L387 120H388L463 266L685 660H848L695 0H597L686 387L729 559H728L407 0H320L256 558H255L222 387L134 0H34Z" />
<glyph unicode="N" glyph-name="N" horiz-adv-x="712" d="M34 0L187 660H310L458 236L493 119H494L517 233L616 660H714L561 0H440L289 423L254 538H253L231 427L134 0H34Z" />
<glyph unicode="O" glyph-name="O" horiz-adv-x="723" d="M348 -10Q273 -10 211 23T112 121T75 278Q75 357 97 428T163 553T269 638T414 670Q489 670 550 636T648 538T685 382Q685 303 663 233T598 108T492 22T348 -10ZM356 83Q410 83 450 109T518 178T560 275T574
383Q574 445 553 488T494 554T405 577Q351 577 310 552T242 483T200 386T186 277Q186 216 207 173T266 106T356 83Z" />
<glyph unicode="P" glyph-name="P" horiz-adv-x="616" d="M34 0L187 660H394Q496 660 554 610T613 476Q613 407 581 355T489 272T351 242H151L171 332H361Q408 332 439 351T487 400T503 467Q503 514 473 542T383 570H274L143 0H34Z" />
<glyph unicode="Q" glyph-name="Q" horiz-adv-x="723" d="M444 -198Q396 -198 355 -180T288 -127T262 -43Q262 -28 264 -13T271 18L356 29Q346 4 346 -23Q346 -65 376 -85T454 -106Q485 -106 510 -99T557 -79L560 -169Q536 -185 505 -191T444 -198ZM348 -10Q273
-10 211 23T112 121T75 278Q75 357 97 428T163 553T269 638T414 670Q489 670 550 636T648 538T685 382Q685 303 663 233T598 108T492 22T348 -10ZM356 83Q410 83 450 109T518 178T560 275T574 383Q574 445 553 488T494 554T405 577Q351 577 310 552T242 483T200
386T186 277Q186 216 207 173T266 106T356 83Z" />
<glyph unicode="R" glyph-name="R" horiz-adv-x="638" d="M34 0L187 660H422Q513 660 566 613T619 481Q619 419 591 373T517 298T412 264L371 256H187L206 344H368Q415 344 446 361T493 408T509 476Q509 522 479 546T397 570H273L142 0H34ZM448 0L342 285L445
299L562 0H448Z" />
<glyph unicode="S" glyph-name="S" horiz-adv-x="624" d="M325 -9Q254 -9 196 12T94 74T26 175L108 233Q127 181 160 148T238 98T329 82Q370 82 398 96T441 133T456 184Q456 217 434 235T373 266L274 296Q203 318 162 362T120 469Q120 528 150 573T236 645T363
671Q460 671 525 632T624 517L540 460Q525 507 497 532T434 568T361 579Q318 579 290 566T247 532T233 483Q233 453 256 429T319 391L425 359Q497 338 533 299T569 199Q569 135 536 88T447 16T325 -9Z" />
<glyph unicode="T" glyph-name="T" horiz-adv-x="595" d="M663 660L641 569H426L295 0H186L318 569H100L123 660H663Z" />
<glyph unicode="U" glyph-name="U" horiz-adv-x="694" d="M318 -10Q229 -10 170 25T88 128T87 288L174 660H283L193 268Q180 208 193 166T242 103T327 82Q397 82 437 127T495 251L590 660H698L600 236Q574 121 505 56T318 -10Z" />
<glyph unicode="V" glyph-name="V" horiz-adv-x="622" d="M702 660L316 0H190L111 660H218L263 218L271 91L333 216L588 660H702Z" />
<glyph unicode="W" glyph-name="W" horiz-adv-x="939" d="M154 0L118 660H224L241 101L498 660H612L625 97L893 660H1011L670 0H542L531 395L534 549H532L465 394L279 0H154Z" />
<glyph unicode="X" glyph-name="X" horiz-adv-x="599" d="M-41 0L261 345L132 660H250L341 422L537 660H661L381 335L520 0H403L304 255L91 0H-41Z" />
<glyph unicode="Y" glyph-name="Y" horiz-adv-x="577" d="M176 0L235 253L109 660H219L280 448L307 341L381 452L536 660H658L342 245L284 0H176Z" />
<glyph unicode="Z" glyph-name="Z" horiz-adv-x="589" d="M-10 0L10 90L479 570H118L139 660H629L607 571L138 90H522L499 0H-10Z" />
<glyph unicode="[" glyph-name="bracketleft" horiz-adv-x="355" d="M418 640H271L103 -84H250L231 -168H-13L194 724H437L418 640Z" />
<glyph unicode="\" glyph-name="backslash" horiz-adv-x="461" d="M119 723H214L354 -70H259L119 723Z" />
<glyph unicode="]" glyph-name="bracketright" horiz-adv-x="355" d="M-61 -84H86L254 640H107L126 724H370L163 -168H-80L-61 -84Z" />
<glyph unicode="^" glyph-name="asciicircum" horiz-adv-x="563" d="M51 355L344 728H441L560 355H464L376 648L157 355H51Z" />
<glyph unicode="_" glyph-name="underscore" horiz-adv-x="536" d="M458 -86L438 -178H-98L-77 -86H458Z" />
<glyph unicode="`" glyph-name="grave" horiz-adv-x="504" d="M378 744L418 576H341L275 744H378Z" />
<glyph unicode="a" glyph-name="a" horiz-adv-x="612" d="M227 -8Q174 -8 133 18T69 91T46 203Q46 265 63 320T114 418T192 485T292 510Q352 510 394 478T449 384L474 500H582L466 0H370L388 96Q364 48 321 20T227 -8ZM267 76Q298 76 326 94T374 143T407 213T419
296Q419 336 405 365T367 409T309 425Q262 425 227 395T172 316T152 211Q152 168 165 138T204 92T267 76Z" />
<glyph unicode="b" glyph-name="b" horiz-adv-x="601" d="M382 508Q433 508 472 484T533 412T556 297Q556 235 538 180T488 82T411 15T313 -10Q250 -10 207 25T153 116L126 0H19L186 723H294L224 417Q247 458 289 483T382 508ZM296 75Q340 75 375 105T429 185T449
290Q449 334 435 363T396 408T339 423Q293 423 258 393T204 314T184 203Q184 146 212 111T296 75Z" />
<glyph unicode="c" glyph-name="c" horiz-adv-x="532" d="M270 -9Q200 -9 151 20T74 100T47 215Q47 300 80 366T172 471T312 509Q370 509 414 489T485 431T518 345L410 324Q408 368 384 396T309 425Q264 425 229 396T174 318T154 211Q154 171 168 141T210 92T275
74Q310 74 339 94T383 152L482 118Q456 58 400 25T270 -9Z" />
<glyph unicode="d" glyph-name="d" horiz-adv-x="613" d="M228 -8Q175 -8 134 18T69 91T46 204Q46 265 63 320T114 418T193 485T293 510Q353 510 395 478T449 384L527 723H635L467 0H371L389 96Q365 48 322 20T228 -8ZM267 76Q299 76 326 94T375 142T408 213T420
296Q420 336 406 365T368 409T310 425Q263 425 228 395T172 316T152 211Q152 168 165 138T204 92T267 76Z" />
<glyph unicode="e" glyph-name="e" horiz-adv-x="559" d="M268 -9Q200 -9 151 20T74 100T47 214Q47 295 79 362T170 469T313 509Q376 509 420 484T488 413T512 307Q512 287 509 266T500 224H110L111 298H440L403 272Q406 285 407 296T409 318Q409 351 397 375T362
412T308 426Q265 426 235 408T187 357T160 287T152 210Q152 170 167 139T211 91T277 74Q321 74 349 94T396 146L483 102Q453 51 398 21T268 -9Z" />
<glyph unicode="f" glyph-name="f" horiz-adv-x="382" d="M58 0L191 577Q210 660 258 696T379 732Q409 732 433 725T474 707L444 630Q434 637 419 641T386 646Q346 646 325 627T292 560L276 489L273 464L166 0H58ZM61 416L81 500H422L402 416H61Z" />
<glyph unicode="g" glyph-name="g" horiz-adv-x="608" d="M206 -215Q149 -215 102 -195T25 -138T-12 -46L97 -23Q104 -76 131 -105T217 -135Q250 -135 278 -122T329 -78T363 9L393 143L403 148Q387 85 341 49T231 12Q178 12 136 38T69 112T45 220Q45 281 63 333T113
425T190 487T290 510Q336 510 372 490T430 433T451 342L435 330L474 500H582L468 8Q441 -107 376 -161T206 -215ZM271 96Q313 96 346 123T399 196T418 297Q418 337 404 365T365 409T306 425Q261 425 226 399T172 327T152 228Q152 170 183 133T271 96Z" />
<glyph unicode="h" glyph-name="h" horiz-adv-x="589" d="M19 0L187 723H295L218 392L203 379Q223 439 273 474T389 510Q441 510 478 486T531 416T532 308L460 0H352L422 299Q435 357 413 389T340 422Q301 422 271 404T221 352T189 269L127 0H19Z" />
<glyph unicode="i" glyph-name="i" horiz-adv-x="263" d="M243 500L127 0H19L135 500H243ZM217 582Q187 582 170 597T153 640Q155 676 175 694T228 712Q259 712 277 697T293 654Q291 619 271 601T217 582Z" />
<glyph unicode="j" glyph-name="j" horiz-adv-x="256" d="M-54 -215Q-84 -215 -114 -207T-163 -181L-133 -100Q-121 -110 -105 -117T-71 -124Q-41 -124 -25 -106T1 -43L128 500H236L106 -63Q88 -141 46 -178T-54 -215ZM466 582Q436 582 419 597T402 640Q404 676
424 694T477 712Q508 712 526 697T542 654Q540 619 520 601T466 582Z" />
<glyph unicode="k" glyph-name="k" horiz-adv-x="554" d="M584 500L320 272L302 262L119 104L133 221L448 500H584ZM295 723L127 0H19L187 723H295ZM343 332L483 0H372L262 273L343 332Z" />
<glyph unicode="l" glyph-name="l" horiz-adv-x="306" d="M159 -8Q89 -8 63 36T52 152L184 723H292L160 151Q151 111 163 93T208 75Q232 75 246 79L222 3Q207 -3 193 -5T159 -8Z" />
<glyph unicode="m" glyph-name="m" horiz-adv-x="920" d="M19 0L135 500H231L208 369L199 377Q220 441 271 475T388 510Q440 510 477 486T529 416T528 304L457 0H349L419 297Q433 357 411 389T341 422Q301 422 271 404T221 351T190 269L127 0H19ZM680 0L749 297Q763
356 741 389T672 422Q632 422 602 404T552 352T519 268L511 360Q538 434 594 472T717 510Q770 510 807 486T859 415T859 304L788 0H680Z" />
<glyph unicode="n" glyph-name="n" horiz-adv-x="589" d="M19 0L135 500H231L208 369L199 377Q220 441 271 475T387 510Q442 510 479 486T532 416T531 306L460 0H352L422 299Q435 357 413 389T340 422Q301 422 271 404T221 352T189 269L127 0H19Z" />
<glyph unicode="o" glyph-name="o" horiz-adv-x="581" d="M272 -9Q202 -9 151 21T74 102T47 215Q47 299 79 365T171 470T309 509Q381 509 431 480T507 399T534 286Q534 202 501 135T410 30T272 -9ZM275 74Q319 74 353 103T407 182T427 289Q427 348 397 387T306
426Q262 426 228 397T174 319T154 211Q154 173 167 142T208 92T275 74Z" />
<glyph unicode="p" glyph-name="p" horiz-adv-x="602" d="M-30 -210L134 500H231L205 357L193 353Q211 425 263 466T385 508Q434 508 473 483T534 412T556 299Q556 236 538 180T488 82T410 15T313 -10Q267 -10 231 9T172 64T149 151L165 171L78 -210H-30ZM296
75Q341 75 375 105T430 185T450 292Q450 334 436 363T397 407T338 423Q293 423 258 394T203 314T183 203Q183 146 211 111T296 75Z" />
<glyph unicode="q" glyph-name="q" horiz-adv-x="612" d="M312 -210L392 134L398 129Q378 66 332 29T227 -8Q175 -8 134 17T70 91T46 203Q46 266 64 321T115 419T193 486T292 510Q339 510 374 491T429 435T450 350L437 337L474 500H582L418 -210H312ZM266 76Q310
76 344 106T398 186T418 295Q418 336 405 365T367 409T309 425Q263 425 228 395T172 317T152 211Q152 168 165 138T204 92T266 76Z" />
<glyph unicode="r" glyph-name="r" horiz-adv-x="388" d="M19 0L135 500H228L207 358L198 369Q221 433 269 471T376 510Q391 510 403 508T424 500L394 405Q385 410 373 412T342 415Q308 415 278 399T224 348T187 259L127 0H19Z" />
<glyph unicode="s" glyph-name="s" horiz-adv-x="502" d="M244 -11Q189 -11 143 6T62 54T10 129L86 178Q106 128 145 100T240 71Q284 71 307 90T331 140Q331 162 319 176T278 198L202 221Q139 240 109 274T78 356Q78 401 102 436T170 490T272 510Q320 510 360
497T431 457T478 392L406 341Q390 381 355 405T272 429Q228 429 205 412T182 365Q182 340 199 327T240 306L334 277Q384 262 411 230T439 155Q439 79 386 34T244 -11Z" />
<glyph unicode="t" glyph-name="t" horiz-adv-x="396" d="M228 -8Q152 -8 112 36T91 163L193 611L310 643L198 162Q188 116 208 96T263 75Q285 75 301 81T331 96L335 19Q311 4 284 -2T228 -8ZM55 416L75 500H418L397 416H55Z" />
<glyph unicode="u" glyph-name="u" horiz-adv-x="587" d="M194 -8Q141 -8 103 16T48 85T46 193L117 500H225L157 203Q143 143 167 111T240 79Q279 79 307 97T356 149T386 231L449 500H557L441 0H346L368 132L377 123Q356 59 307 26T194 -8Z" />
<glyph unicode="v" glyph-name="v" horiz-adv-x="499" d="M432 500H553L254 0H133L62 500H168L215 48L191 53L432 500Z" />
<glyph unicode="w" glyph-name="w" horiz-adv-x="814" d="M111 0L71 500H176L199 109L398 500H505L542 104L739 500H853L587 0H467L427 371L233 0H111Z" />
<glyph unicode="x" glyph-name="x" horiz-adv-x="529" d="M-40 0L216 277L247 283L429 500H557L313 232L278 223L92 0H-40ZM335 0L236 229L209 238L84 500H204L293 279L318 277L453 0H335Z" />
<glyph unicode="y" glyph-name="y" horiz-adv-x="511" d="M19 -215Q-21 -215 -50 -205T-97 -181L-61 -99Q-44 -114 -26 -121T16 -129Q47 -129 70 -113T115 -63L151 -2L67 500H176L209 208L222 91L283 203L447 500H566L214 -77Q186 -124 157 -154T94 -200T19 -215Z" />
<glyph unicode="z" glyph-name="z" horiz-adv-x="498" d="M-8 0L10 76L304 370L358 419L278 417H85L104 500H503L484 421L210 148L138 82L236 83H425L405 0H-8Z" />
<glyph unicode="{" glyph-name="braceleft" horiz-adv-x="357" d="M215 -188Q129 -188 91 -151T67 -44L108 133Q121 190 101 214T34 238H27L45 318H63Q106 318 133 337T171 403L219 616Q234 678 276 711T398 745H434L417 670H406Q360 670 338 652T306 594L259
388Q249 342 219 311T141 273Q182 262 199 231T205 152L161 -38Q152 -78 170 -96T230 -116H236L219 -188H215Z" />
<glyph unicode="|" glyph-name="bar" horiz-adv-x="263" d="M288 724L81 -168H-13L194 724H288Z" />
<glyph unicode="}" glyph-name="braceright" horiz-adv-x="357" d="M-75 -188L-59 -116H-49Q-1 -116 21 -97T52 -38L100 169Q110 214 141 245T218 284Q176 295 160 326T154 405L197 593Q206 632 189 651T130 670H122L140 745H153Q234 745 270 708T292 605L250
423Q238 367 258 343T325 318H331L313 238H295Q253 238 226 220T188 153L139 -60Q125 -122 83 -155T-36 -188H-75Z" />
<glyph unicode="~" glyph-name="asciitilde" horiz-adv-x="554" d="M545 400Q532 342 506 307T446 255T378 239Q344 239 322 249T283 274T247 298T206 309Q182 309 163 292T133 240H42Q55 297 81 332T141 385T213 402Q244 402 265 391T304 366T339 341T381 330Q433
330 455 400H545Z" />
<glyph unicode="&#xa0;" glyph-name="uni00A0" horiz-adv-x="316" />
<glyph unicode="&#xa1;" glyph-name="exclamdown" horiz-adv-x="271" d="M181 293L153 105L91 -160H-23L38 105L97 293H181ZM174 509Q204 509 222 494T241 450Q241 414 220 393T164 371Q135 371 116 387T97 431Q97 467 119 488T174 509Z" />
<glyph unicode="&#xa2;" glyph-name="cent" horiz-adv-x="554" d="M273 -9Q206 -9 156 20T80 100T53 215Q53 302 86 368T178 471T315 509Q375 509 419 488T490 430T523 345L425 326Q424 371 395 402T312 433Q264 433 228 404T171 326T150 215Q150 173 165 140T209
87T280 67Q318 67 350 89T396 152L489 120Q463 59 406 25T273 -9ZM170 -100L332 600H408L247 -100H170Z" />
<glyph unicode="&#xa3;" glyph-name="sterling" horiz-adv-x="592" d="M79 277L95 343H460L445 277H79ZM400 -10Q357 -10 325 2T268 31T220 66T175 96T126 108Q108 108 98 99T88 76Q88 61 97 53T123 45Q149 45 170 67T202 126T214 203Q214 249 205 289T186 368T176
450Q176 516 206 565T285 643T395 671Q449 671 491 650T559 590T586 496L493 472Q490 519 465 551T393 584Q357 584 330 566T287 518T272 446Q272 409 277 376T287 308T293 230Q293 184 280 141T243 64T187 11T116 -9Q75 -9 48 14T21 72Q21 112 51 138T131 164Q163
164 189 155T240 131T287 103T336 79T391 69Q426 69 446 91T476 165L552 145Q544 94 523 60T470 8T400 -10Z" />
<glyph unicode="&#xa4;" glyph-name="currency" horiz-adv-x="646" d="M343 536Q403 536 448 510T519 438T545 332Q545 270 519 223T447 149T340 122Q282 122 236 148T164 221T138 328Q138 389 164 436T237 509T343 536ZM343 451Q293 451 262 417T231 328Q231
275 262 241T341 207Q390 207 421 242T452 331Q452 384 422 417T343 451ZM145 598L264 472L204 413L80 533L145 598ZM202 247L260 188L142 59L77 124L202 247ZM479 244L602 124L537 59L420 184L479 244ZM541 598L605 533L482 412L424 471L541 598Z" />
<glyph unicode="&#xa5;" glyph-name="yen" horiz-adv-x="608" d="M195 0L222 114H53L65 167H235L252 241H82L96 298H201L251 294L123 660H227L301 421L325 329H327L383 423L548 660H672L383 293L429 298H535L522 241H352L335 167H505L493 114H323L296 0H195Z" />
<glyph unicode="&#xa6;" glyph-name="brokenbar" horiz-adv-x="263" d="M288 724L203 355H108L194 724H288ZM167 201L81 -168H-13L73 201H167Z" />
<glyph unicode="&#xa7;" glyph-name="section" horiz-adv-x="589" d="M255 -110Q203 -110 156 -96T71 -51T15 23L94 71Q114 25 157 -4T267 -33Q321 -33 350 -11T380 49Q380 77 363 93T302 123L186 158Q138 174 106 193T57 239T41 306Q41 367 84 402T195 440L227
396Q174 393 150 372T126 321Q126 301 135 286T165 259T217 238L340 202Q406 182 440 152T474 72Q474 21 450 -20T376 -86T255 -110ZM399 120L376 168Q420 168 448 187T476 244Q476 271 457 288T397 317L267 357Q210 374 179 406T147 496Q147 545 172 584T244 647T359
670Q403 670 446 658T526 620T590 546L514 498Q486 547 446 568T351 590Q319 590 295 580T258 551T244 508Q244 477 261 459T327 427L433 395Q498 376 530 344T562 263Q562 224 543 192T488 140T399 120Z" />
<glyph unicode="&#xa8;" glyph-name="dieresis" horiz-adv-x="504" d="M437 573Q411 573 395 587T378 625Q378 660 398 678T449 696Q475 696 491 683T508 645Q508 609 488 591T437 573ZM233 573Q207 573 191 587T175 625Q175 660 195 678T246 696Q272 696 288
683T304 645Q304 609 284 591T233 573Z" />
<glyph unicode="&#xa9;" glyph-name="copyright" horiz-adv-x="795" d="M416 -10Q316 -10 239 34T118 156T74 330Q74 428 117 504T238 625T416 670Q518 670 595 626T715 505T758 330Q758 233 715 156T595 35T416 -10ZM416 58Q496 58 557 94T652 191T686 330Q686
408 652 469T557 566T416 602Q336 602 275 566T181 469T147 330Q147 252 180 191T275 94T416 58ZM423 141Q336 141 287 191T238 328Q238 415 287 465T423 516Q485 516 525 489T585 414L515 381Q503 411 481 425T424 439Q376 439 349 410T321 328Q321 277 349 248T425
218Q460 218 484 233T521 280L587 251Q567 197 527 169T423 141Z" />
<glyph unicode="&#xaa;" glyph-name="ordfeminine" horiz-adv-x="375" d="M181 319Q134 319 103 356T71 456Q71 513 92 560T151 636T236 665Q261 665 282 652T316 614T325 548L310 525L343 659H426L347 328H273L307 480L305 436Q290 378 256 349T181 319ZM23 185L38
248H335L320 185H23ZM216 384Q243 384 262 405T292 459T302 524Q302 558 287 578T245 599Q215 599 195 578T165 525T155 462Q155 428 170 406T216 384Z" />
<glyph unicode="&#xab;" glyph-name="guillemotleft" horiz-adv-x="514" d="M324 461L126 236L129 304L225 69H128L46 265L219 461H324ZM518 461L320 236L323 304L419 69H322L240 265L413 461H518Z" />
<glyph unicode="&#xac;" glyph-name="logicalnot" horiz-adv-x="604" d="M559 317L514 122H419L463 317H559ZM570 363L550 276H67L87 363H570Z" />
<glyph unicode="&#xad;" glyph-name="uni00AD" horiz-adv-x="0" />
<glyph unicode="&#xae;" glyph-name="registered" horiz-adv-x="799" d="M418 670Q522 670 599 628T718 510T761 330Q761 227 719 151T599 32T418 -10Q314 -10 237 32T118 150T75 330Q75 433 117 509T237 628T418 670ZM360 514V146H284V514H360ZM472 317L589 146H500L408
296L472 317ZM418 602Q336 602 276 569T182 474T148 330Q148 248 181 187T275 92T418 58Q500 58 560 92T654 187T687 330Q687 413 654 474T561 568T418 602ZM445 514Q505 514 542 482T580 397Q580 342 542 311T440 279H329V334H436Q469 334 486 349T504 394Q504
424 487 439T436 454H329V514H445Z" />
<glyph unicode="&#xaf;" glyph-name="overscore" horiz-adv-x="504" d="M510 664L493 587H166L184 664H510Z" />
<glyph unicode="&#xb0;" glyph-name="degree" horiz-adv-x="450" d="M283 330Q230 330 190 351T127 411T104 500Q104 550 126 588T189 648T283 670Q336 670 376 649T438 589T461 500Q461 450 439 411T377 351T283 330ZM283 406Q324 406 350 432T376 500Q376 541
350 567T283 593Q242 593 216 567T189 500Q189 459 215 433T283 406Z" />
<glyph unicode="&#xb1;" glyph-name="plusminus" horiz-adv-x="593" d="M431 643L321 162H233L343 643H431ZM580 445L560 359H82L102 445H580ZM498 85L477 0H-1L20 85H498Z" />
<glyph unicode="&#xb2;" glyph-name="uni00B2" horiz-adv-x="365" d="M70 333L84 395Q127 422 168 448T243 500T296 554T316 612Q316 642 301 654T264 667Q234 667 214 645T186 585L111 616Q124 670 164 702T270 735Q333 735 367 704T401 627Q401 585 382 552T331
492T263 443T193 401V400Q206 401 223 401T252 402H374L358 333H70Z" />
<glyph unicode="&#xb3;" glyph-name="uni00B3" horiz-adv-x="348" d="M214 327Q151 327 111 358T63 443L145 461Q149 428 165 411T214 393Q243 393 260 411T277 455Q277 480 262 492T217 505Q212 505 208 505T199 504L214 561Q219 560 225 560T237 559Q267 559
284 575T301 618Q301 643 286 655T247 668Q223 668 206 655T180 615L106 645Q122 687 160 711T254 735Q311 735 348 709T385 634Q385 592 361 563T295 529L294 528Q323 524 342 506T362 453Q362 413 341 385T287 342T214 327Z" />
<glyph unicode="&#xb4;" glyph-name="acute" horiz-adv-x="600" d="M395 744H511L367 576H278L395 744Z" />
<glyph unicode="&#xb5;" glyph-name="uni00B5" horiz-adv-x="606" d="M-30 -210L134 500H242L174 203Q161 143 185 111T258 79Q297 79 326 96T375 148T406 231L468 500H576L460 0H365L379 85Q353 39 311 16T218 -8Q186 -8 155 4T103 46L143 65L78 -210H-30Z" />
<glyph unicode="&#xb6;" glyph-name="paragraph" horiz-adv-x="683" d="M213 -100L280 189Q238 191 201 206T136 247T92 312T76 398Q76 482 112 540T215 629T371 660H694L518 -100H428L583 574H461L306 -100H213ZM298 277L367 574H335Q287 574 249 555T189 499T167
405Q167 350 202 314T298 277Z" />
<glyph unicode="&#xb7;" glyph-name="middot" horiz-adv-x="244" d="M142 284Q112 284 93 300T73 344Q73 381 95 403T151 426Q181 426 200 410T219 364Q219 328 198 306T142 284Z" />
<glyph unicode="&#xb8;" glyph-name="cedilla" horiz-adv-x="508" d="M171 5L215 27Q261 11 286 -18T312 -89Q312 -129 294 -157T246 -200T180 -214Q144 -214 117 -201T75 -171L109 -116Q123 -130 141 -137T179 -145Q208 -145 225 -127T243 -81Q243 -52 225 -32T171 5Z" />
<glyph unicode="&#xb9;" glyph-name="uni00B9" horiz-adv-x="251" d="M133 333L188 576Q191 588 195 602T202 627T206 640Q184 623 154 610T99 591L110 665Q131 670 155 680T203 703T240 729H309L217 333H133Z" />
<glyph unicode="&#xba;" glyph-name="ordmasculine" horiz-adv-x="371" d="M224 319Q159 319 120 358T81 463Q81 518 102 563T164 637T259 665Q325 665 363 626T402 522Q402 469 381 423T319 348T224 319ZM22 185L37 248H333L317 185H22ZM228 383Q257 383 277
404T308 459T318 525Q318 560 302 580T255 601Q227 601 207 580T176 526T165 459Q165 425 181 404T228 383Z" />
<glyph unicode="&#xbb;" glyph-name="guillemotright" horiz-adv-x="513" d="M-10 69L186 292V225L89 461H185L268 265L96 69H-10ZM184 69L380 292V225L283 461H379L462 265L290 69H184Z" />
<glyph unicode="&#xbc;" glyph-name="onequarter" horiz-adv-x="781" d="M374 524L429 767Q432 779 436 793T443 818T447 831Q425 814 395 801T340 782L351 856Q372 861 396 871T444 894T481 920H550L458 524H374ZM44 0L653 660H749L139 0H44ZM566 -4L588 92H417L431
149Q440 161 446 168T459 184T480 210L630 393H731L674 150H745L732 92H661L639 -4H566ZM505 150H601L643 325L530 179Q525 173 523 170T517 163T505 150Z" />
<glyph unicode="&#xbd;" glyph-name="onehalf" horiz-adv-x="871" d="M374 524L429 767Q432 779 436 793T443 818T447 831Q425 814 395 801T340 782L351 856Q372 861 396 871T444 894T481 920H550L458 524H374ZM44 0L653 660H749L139 0H44ZM497 -4L511 58Q554
85 595 111T670 163T723 217T743 275Q743 305 728 317T691 330Q661 330 641 308T613 248L538 279Q551 333 591 365T697 398Q760 398 794 367T828 290Q828 248 809 215T758 155T690 106T620 64V63Q633 64 650 64T679 65H801L785 -4H497Z" />
<glyph unicode="&#xbe;" glyph-name="threequarters" horiz-adv-x="877" d="M455 518Q392 518 352 549T304 634L386 652Q390 619 406 602T455 584Q484 584 501 602T518 646Q518 671 503 683T458 696Q453 696 449 696T440 695L455 752Q460 751 466 751T478 750Q508
750 525 766T542 809Q542 834 527 846T488 859Q464 859 447 846T421 806L347 836Q363 878 401 902T495 926Q552 926 589 900T626 825Q626 783 602 754T536 720L535 719Q564 715 583 697T603 644Q603 604 582 576T528 533T455 518ZM141 0L750 660H846L236 0H141ZM663
-4L685 92H514L528 149Q537 161 543 168T556 184T577 210L727 393H828L771 150H842L829 92H758L736 -4H663ZM602 150H698L740 325L627 179Q622 173 620 170T614 163T602 150Z" />
<glyph unicode="&#xbf;" glyph-name="questiondown" horiz-adv-x="540" d="M334 294L299 145Q237 145 191 132T119 90T94 13Q94 -32 124 -54T201 -77Q257 -77 292 -48T345 31L439 -18Q423 -61 390 -95T307 -149T192 -169Q131 -169 84 -149T9 -90T-18 2Q-18 64
10 108T90 178T211 208L232 294H334ZM316 508Q346 508 365 493T384 450Q384 414 363 393T307 371Q278 371 259 387T240 430Q240 466 261 487T316 508Z" />
<glyph unicode="&#xc0;" glyph-name="Agrave" horiz-adv-x="634" d="M-43 0L346 660H479L561 0H456L435 180H176L74 0H-43ZM226 266H427L394 563L226 266ZM445 895L481 736H408L344 895H445Z" />
<glyph unicode="&#xc1;" glyph-name="Aacute" horiz-adv-x="634" d="M-43 0L346 660H479L561 0H456L435 180H176L74 0H-43ZM226 266H427L394 563L226 266ZM466 895H577L455 736H370L466 895Z" />
<glyph unicode="&#xc2;" glyph-name="Acircumflex" horiz-adv-x="634" d="M-43 0L346 660H479L561 0H456L435 180H176L74 0H-43ZM226 266H427L394 563L226 266ZM515 895L584 736H504L451 838L352 736H261L404 895H515Z" />
<glyph unicode="&#xc3;" glyph-name="Atilde" horiz-adv-x="634" d="M-43 0L346 660H479L561 0H456L435 180H176L74 0H-43ZM226 266H427L394 563L226 266ZM619 875Q607 806 572 771T493 735Q468 735 451 745T422 768T398 791T372 801Q356 801 343 783T322 735H252Q264
804 298 839T377 875Q401 875 417 865T447 842T472 819T498 809Q515 809 527 826T548 875H619Z" />
<glyph unicode="&#xc4;" glyph-name="Adieresis" horiz-adv-x="634" d="M-43 0L346 660H479L561 0H456L435 180H176L74 0H-43ZM226 266H427L394 563L226 266ZM531 733Q505 733 489 747T472 785Q472 820 492 838T543 856Q569 856 585 843T602 805Q602 769 582 751T531
733ZM327 733Q301 733 285 747T269 785Q269 820 289 838T340 856Q366 856 382 843T398 805Q398 769 378 751T327 733Z" />
<glyph unicode="&#xc5;" glyph-name="Aring" horiz-adv-x="634" d="M-43 0L346 660H479L561 0H456L435 180H176L74 0H-43ZM226 266H427L394 563L226 266ZM425 842Q479 842 512 812T545 735Q545 679 509 643T415 606Q362 606 328 637T294 713Q294 769 331 805T425
842ZM424 786Q397 786 378 768T358 718Q358 693 375 677T417 661Q444 661 463 679T482 730Q482 754 466 770T424 786Z" />
<glyph unicode="&#xc6;" glyph-name="AE" horiz-adv-x="914" d="M-54 0L431 660H952L931 571H607L562 376H811L791 290H542L496 89H835L813 0H370L419 210H218L68 0H-54ZM275 294H439L503 573H481L275 294Z" />
<glyph unicode="&#xc7;" glyph-name="Ccedilla" horiz-adv-x="666" d="M352 -10Q275 -10 212 22T111 118T74 272Q74 350 96 421T162 549T269 637T414 670Q512 670 577 621T664 475L556 445Q543 515 506 546T407 578Q353 578 312 552T242 482T200 385T186 278Q186
217 208 173T269 106T358 82Q418 82 453 110T513 184L613 141Q572 71 510 31T352 -10ZM279 5L323 27Q369 11 394 -18T420 -89Q420 -129 402 -157T354 -200T288 -214Q252 -214 225 -201T183 -171L217 -116Q231 -130 249 -137T287 -145Q316 -145 333 -127T351 -81Q351
-52 333 -32T279 5Z" />
<glyph unicode="&#xc8;" glyph-name="Egrave" horiz-adv-x="611" d="M34 0L187 660H651L628 569H274L230 378H509L488 289H210L164 91H533L511 0H34ZM436 895L472 736H399L335 895H436Z" />
<glyph unicode="&#xc9;" glyph-name="Eacute" horiz-adv-x="611" d="M34 0L187 660H651L628 569H274L230 378H509L488 289H210L164 91H533L511 0H34ZM471 895H582L460 736H375L471 895Z" />
<glyph unicode="&#xca;" glyph-name="Ecircumflex" horiz-adv-x="611" d="M34 0L187 660H651L628 569H274L230 378H509L488 289H210L164 91H533L511 0H34ZM521 895L590 736H510L457 838L358 736H267L410 895H521Z" />
<glyph unicode="&#xcb;" glyph-name="Edieresis" horiz-adv-x="611" d="M34 0L187 660H651L628 569H274L230 378H509L488 289H210L164 91H533L511 0H34ZM537 733Q511 733 495 747T478 785Q478 820 498 838T549 856Q575 856 591 843T608 805Q608 769 588 751T537
733ZM333 733Q307 733 291 747T275 785Q275 820 295 838T346 856Q372 856 388 843T404 805Q404 769 384 751T333 733Z" />
<glyph unicode="&#xcc;" glyph-name="Igrave" horiz-adv-x="293" d="M296 660L143 0H34L187 660H296ZM260 895L296 736H223L159 895H260Z" />
<glyph unicode="&#xcd;" glyph-name="Iacute" horiz-adv-x="293" d="M296 660L143 0H34L187 660H296ZM309 895H420L298 736H213L309 895Z" />
<glyph unicode="&#xce;" glyph-name="Icircumflex" horiz-adv-x="293" d="M296 660L143 0H34L187 660H296ZM350 895L419 736H339L286 838L187 736H96L239 895H350Z" />
<glyph unicode="&#xcf;" glyph-name="Idieresis" horiz-adv-x="279" d="M342 733Q318 733 303 747T287 784Q287 817 306 836T358 856Q382 856 397 843T413 806Q413 773 394 753T342 733ZM169 733Q144 733 128 747T112 784Q112 817 131 836T183 856Q208 856 223
843T239 806Q239 773 220 753T169 733ZM292 660L139 0H31L184 660H292Z" />
<glyph unicode="&#xd0;" glyph-name="Eth" horiz-adv-x="725" d="M22 289L42 375H417L397 289H22ZM55 0L208 660H410Q496 660 556 626T647 531T678 392Q678 307 653 236T579 111T465 29T316 0H55ZM184 90H320Q377 90 422 114T500 180T549 275T566 384Q566 438
548 480T492 546T398 570H296L184 90Z" />
<glyph unicode="&#xd1;" glyph-name="Ntilde" horiz-adv-x="712" d="M34 0L187 660H310L458 236L493 119H494L517 233L616 660H714L561 0H440L289 423L254 538H253L231 427L134 0H34ZM658 875Q646 806 611 771T532 735Q507 735 490 745T461 768T437 791T411 801Q395
801 382 783T361 735H291Q303 804 337 839T416 875Q440 875 456 865T486 842T511 819T537 809Q554 809 566 826T587 875H658Z" />
<glyph unicode="&#xd2;" glyph-name="Ograve" horiz-adv-x="723" d="M348 -10Q273 -10 211 23T112 121T75 278Q75 357 97 428T163 553T269 638T414 670Q489 670 550 636T648 538T685 382Q685 303 663 233T598 108T492 22T348 -10ZM356 83Q410 83 450 109T518 178T560
275T574 383Q574 445 553 488T494 554T405 577Q351 577 310 552T242 483T200 386T186 277Q186 216 207 173T266 106T356 83ZM453 895L489 736H416L352 895H453Z" />
<glyph unicode="&#xd3;" glyph-name="Oacute" horiz-adv-x="723" d="M348 -10Q273 -10 211 23T112 121T75 278Q75 357 97 428T163 553T269 638T414 670Q489 670 550 636T648 538T685 382Q685 303 663 233T598 108T492 22T348 -10ZM356 83Q410 83 450 109T518 178T560
275T574 383Q574 445 553 488T494 554T405 577Q351 577 310 552T242 483T200 386T186 277Q186 216 207 173T266 106T356 83ZM489 895H600L478 736H393L489 895Z" />
<glyph unicode="&#xd4;" glyph-name="Ocircumflex" horiz-adv-x="723" d="M348 -10Q273 -10 211 23T112 121T75 278Q75 357 97 428T163 553T269 638T414 670Q489 670 550 636T648 538T685 382Q685 303 663 233T598 108T492 22T348 -10ZM356 83Q410 83 450 109T518
178T560 275T574 383Q574 445 553 488T494 554T405 577Q351 577 310 552T242 483T200 386T186 277Q186 216 207 173T266 106T356 83ZM538 895L607 736H527L474 838L375 736H284L427 895H538Z" />
<glyph unicode="&#xd5;" glyph-name="Otilde" horiz-adv-x="723" d="M348 -10Q273 -10 211 23T112 121T75 278Q75 357 97 428T163 553T269 638T414 670Q489 670 550 636T648 538T685 382Q685 303 663 233T598 108T492 22T348 -10ZM356 83Q410 83 450 109T518 178T560
275T574 383Q574 445 553 488T494 554T405 577Q351 577 310 552T242 483T200 386T186 277Q186 216 207 173T266 106T356 83ZM643 875Q631 806 596 771T517 735Q492 735 475 745T446 768T422 791T396 801Q380 801 367 783T346 735H276Q288 804 322 839T401 875Q425
875 441 865T471 842T496 819T522 809Q539 809 551 826T572 875H643Z" />
<glyph unicode="&#xd6;" glyph-name="Odieresis" horiz-adv-x="723" d="M348 -10Q273 -10 211 23T112 121T75 278Q75 357 97 428T163 553T269 638T414 670Q489 670 550 636T648 538T685 382Q685 303 663 233T598 108T492 22T348 -10ZM356 83Q410 83 450 109T518
178T560 275T574 383Q574 445 553 488T494 554T405 577Q351 577 310 552T242 483T200 386T186 277Q186 216 207 173T266 106T356 83ZM554 733Q528 733 512 747T495 785Q495 820 515 838T566 856Q592 856 608 843T625 805Q625 769 605 751T554 733ZM350 733Q324
733 308 747T292 785Q292 820 312 838T363 856Q389 856 405 843T421 805Q421 769 401 751T350 733Z" />
<glyph unicode="&#xd7;" glyph-name="multiply" horiz-adv-x="604" d="M98 93L43 165L516 547L571 476L98 93ZM424 93L119 492L190 547L494 149L424 93Z" />
<glyph unicode="&#xd8;" glyph-name="Oslash" horiz-adv-x="723" d="M219 104L182 147L542 559L576 513L219 104ZM38 -14L166 131L205 90L112 -14H38ZM583 520L555 570L647 675H722L583 520ZM348 -10Q273 -10 211 23T112 121T75 278Q75 357 97 428T163 553T269
638T414 670Q489 670 550 636T648 538T685 382Q685 303 663 233T598 108T492 22T348 -10ZM356 83Q410 83 450 109T518 178T560 275T574 383Q574 445 553 488T494 554T405 577Q351 577 310 552T242 483T200 386T186 277Q186 216 207 173T266 106T356 83Z" />
<glyph unicode="&#xd9;" glyph-name="Ugrave" horiz-adv-x="694" d="M318 -10Q229 -10 170 25T88 128T87 288L174 660H283L193 268Q180 208 193 166T242 103T327 82Q397 82 437 127T495 251L590 660H698L600 236Q574 121 505 56T318 -10ZM451 878L487 719H414L350
878H451Z" />
<glyph unicode="&#xda;" glyph-name="Uacute" horiz-adv-x="694" d="M318 -10Q229 -10 170 25T88 128T87 288L174 660H283L193 268Q180 208 193 166T242 103T327 82Q397 82 437 127T495 251L590 660H698L600 236Q574 121 505 56T318 -10ZM490 878H601L479 719H394L490
878Z" />
<glyph unicode="&#xdb;" glyph-name="Ucircumflex" horiz-adv-x="694" d="M318 -10Q229 -10 170 25T88 128T87 288L174 660H283L193 268Q180 208 193 166T242 103T327 82Q397 82 437 127T495 251L590 660H698L600 236Q574 121 505 56T318 -10ZM537 878L606 719H526L473
821L374 719H283L426 878H537Z" />
<glyph unicode="&#xdc;" glyph-name="Udieresis" horiz-adv-x="694" d="M318 -10Q229 -10 170 25T88 128T87 288L174 660H283L193 268Q180 208 193 166T242 103T327 82Q397 82 437 127T495 251L590 660H698L600 236Q574 121 505 56T318 -10ZM552 716Q526 716 510
730T493 768Q493 803 513 821T564 839Q590 839 606 826T623 788Q623 752 603 734T552 716ZM348 716Q322 716 306 730T290 768Q290 803 310 821T361 839Q387 839 403 826T419 788Q419 752 399 734T348 716Z" />
<glyph unicode="&#xdd;" glyph-name="Yacute" horiz-adv-x="577" d="M176 0L235 253L109 660H219L280 448L307 341L381 452L536 660H658L342 245L284 0H176ZM430 878H541L419 719H334L430 878Z" />
<glyph unicode="&#xde;" glyph-name="Thorn" horiz-adv-x="618" d="M131 125L151 216H342Q390 216 421 235T469 287T485 356Q485 401 454 427T364 454H203L226 543H375Q478 543 536 494T594 360Q594 292 562 239T473 156T340 125H131ZM34 0L187 660H296L143 0H34Z" />
<glyph unicode="&#xdf;" glyph-name="germandbls" horiz-adv-x="596" d="M326 -10Q286 -10 253 -1T199 23L229 105Q245 93 269 85T320 77Q360 77 387 97T428 148T442 216Q442 269 410 301T314 333Q308 333 302 333T289 332L312 417Q321 416 329 416T347 415Q392
415 422 432T469 478T485 546Q485 577 473 598T437 630T384 641Q327 641 293 605T240 488L127 0H19L138 516Q163 625 228 676T394 728Q457 728 500 707T567 649T590 564Q590 510 567 467T505 399T416 372V370Q450 367 478 348T524 296T542 218Q542 150 515 99T440
19T326 -10Z" />
<glyph unicode="&#xe0;" glyph-name="agrave" horiz-adv-x="612" d="M227 -8Q174 -8 133 18T69 91T46 203Q46 265 63 320T114 418T192 485T292 510Q352 510 394 478T449 384L474 500H582L466 0H370L388 96Q364 48 321 20T227 -8ZM267 76Q298 76 326 94T374 143T407
213T419 296Q419 336 405 365T367 409T309 425Q262 425 227 395T172 316T152 211Q152 168 165 138T204 92T267 76ZM349 744L389 576H312L246 744H349Z" />
<glyph unicode="&#xe1;" glyph-name="aacute" horiz-adv-x="612" d="M227 -8Q174 -8 133 18T69 91T46 203Q46 265 63 320T114 418T192 485T292 510Q352 510 394 478T449 384L474 500H582L466 0H370L388 96Q364 48 321 20T227 -8ZM267 76Q298 76 326 94T374 143T407
213T419 296Q419 336 405 365T367 409T309 425Q262 425 227 395T172 316T152 211Q152 168 165 138T204 92T267 76ZM403 744H519L375 576H286L403 744Z" />
<glyph unicode="&#xe2;" glyph-name="acircumflex" horiz-adv-x="612" d="M227 -8Q174 -8 133 18T69 91T46 203Q46 265 63 320T114 418T192 485T292 510Q352 510 394 478T449 384L474 500H582L466 0H370L388 96Q364 48 321 20T227 -8ZM267 76Q298 76 326 94T374
143T407 213T419 296Q419 336 405 365T367 409T309 425Q262 425 227 395T172 316T152 211Q152 168 165 138T204 92T267 76ZM181 570L325 738H436L502 570H420L369 676L272 570H181Z" />
<glyph unicode="&#xe3;" glyph-name="atilde" horiz-adv-x="612" d="M227 -8Q174 -8 133 18T69 91T46 203Q46 265 63 320T114 418T192 485T292 510Q352 510 394 478T449 384L474 500H582L466 0H370L388 96Q364 48 321 20T227 -8ZM267 76Q298 76 326 94T374 143T407
213T419 296Q419 336 405 365T367 409T309 425Q262 425 227 395T172 316T152 211Q152 168 165 138T204 92T267 76ZM542 715Q530 646 495 611T416 575Q391 575 374 585T345 608T321 631T295 641Q279 641 266 623T245 575H175Q187 644 221 679T300 715Q324 715 340
705T370 682T395 659T421 649Q438 649 450 666T471 715H542Z" />
<glyph unicode="&#xe4;" glyph-name="adieresis" horiz-adv-x="612" d="M227 -8Q174 -8 133 18T69 91T46 203Q46 265 63 320T114 418T192 485T292 510Q352 510 394 478T449 384L474 500H582L466 0H370L388 96Q364 48 321 20T227 -8ZM267 76Q298 76 326 94T374
143T407 213T419 296Q419 336 405 365T367 409T309 425Q262 425 227 395T172 316T152 211Q152 168 165 138T204 92T267 76ZM453 573Q427 573 411 587T394 625Q394 660 414 678T465 696Q491 696 507 683T524 645Q524 609 504 591T453 573ZM249 573Q223 573 207 587T191
625Q191 660 211 678T262 696Q288 696 304 683T320 645Q320 609 300 591T249 573Z" />
<glyph unicode="&#xe5;" glyph-name="aring" horiz-adv-x="612" d="M227 -8Q174 -8 133 18T69 91T46 203Q46 265 63 320T114 418T192 485T292 510Q352 510 394 478T449 384L474 500H582L466 0H370L388 96Q364 48 321 20T227 -8ZM267 76Q298 76 326 94T374 143T407
213T419 296Q419 336 405 365T367 409T309 425Q262 425 227 395T172 316T152 211Q152 168 165 138T204 92T267 76ZM368 803Q422 803 455 773T488 696Q488 640 452 604T358 567Q305 567 271 598T237 674Q237 730 274 766T368 803ZM367 747Q340 747 321 729T301 679Q301
654 318 638T360 622Q387 622 406 640T425 691Q425 715 409 731T367 747Z" />
<glyph unicode="&#xe6;" glyph-name="ae" horiz-adv-x="867" d="M192 -10Q113 -10 72 28T31 127Q31 173 54 204T117 252T208 276L391 299L385 232L247 213Q195 206 165 190T135 135Q135 103 154 86T213 69Q267 69 300 99T347 187L373 305Q375 315 376 323T377
339Q377 380 352 404T281 428Q234 428 203 407T151 340L68 376Q94 439 148 474T288 509Q334 509 369 494T424 453T447 395L428 401Q459 450 511 479T634 509Q691 509 733 484T798 413T821 311Q821 291 818 269T808 224H449L457 298H716Q717 303 717 307T717 319Q717
351 705 375T672 413T623 426Q579 426 549 407T499 356T471 286T462 208Q462 168 477 138T520 91T585 74Q628 74 657 93T705 146L791 102Q762 51 707 21T581 -9Q524 -9 481 13T412 73T384 154L406 160Q400 115 372 76T299 14T192 -10Z" />
<glyph unicode="&#xe7;" glyph-name="ccedilla" horiz-adv-x="532" d="M270 -9Q200 -9 151 20T74 100T47 215Q47 300 80 366T172 471T312 509Q370 509 414 489T485 431T518 345L410 324Q408 368 384 396T309 425Q264 425 229 396T174 318T154 211Q154 171 168
141T210 92T275 74Q310 74 339 94T383 152L482 118Q456 58 400 25T270 -9ZM189 6L233 28Q279 12 304 -17T330 -88Q330 -128 312 -156T264 -199T198 -213Q162 -213 135 -200T93 -170L127 -115Q141 -129 159 -136T197 -144Q226 -144 243 -126T261 -80Q261 -51 243
-31T189 6Z" />
<glyph unicode="&#xe8;" glyph-name="egrave" horiz-adv-x="559" d="M268 -9Q200 -9 151 20T74 100T47 214Q47 295 79 362T170 469T313 509Q376 509 420 484T488 413T512 307Q512 287 509 266T500 224H110L111 298H440L403 272Q406 285 407 296T409 318Q409 351
397 375T362 412T308 426Q265 426 235 408T187 357T160 287T152 210Q152 170 167 139T211 91T277 74Q321 74 349 94T396 146L483 102Q453 51 398 21T268 -9ZM336 744L376 576H299L233 744H336Z" />
<glyph unicode="&#xe9;" glyph-name="eacute" horiz-adv-x="559" d="M268 -9Q200 -9 151 20T74 100T47 214Q47 295 79 362T170 469T313 509Q376 509 420 484T488 413T512 307Q512 287 509 266T500 224H110L111 298H440L403 272Q406 285 407 296T409 318Q409 351
397 375T362 412T308 426Q265 426 235 408T187 357T160 287T152 210Q152 170 167 139T211 91T277 74Q321 74 349 94T396 146L483 102Q453 51 398 21T268 -9ZM390 744H506L362 576H273L390 744Z" />
<glyph unicode="&#xea;" glyph-name="ecircumflex" horiz-adv-x="559" d="M268 -9Q200 -9 151 20T74 100T47 214Q47 295 79 362T170 469T313 509Q376 509 420 484T488 413T512 307Q512 287 509 266T500 224H110L111 298H440L403 272Q406 285 407 296T409 318Q409
351 397 375T362 412T308 426Q265 426 235 408T187 357T160 287T152 210Q152 170 167 139T211 91T277 74Q321 74 349 94T396 146L483 102Q453 51 398 21T268 -9ZM168 570L312 738H423L489 570H407L356 676L259 570H168Z" />
<glyph unicode="&#xeb;" glyph-name="edieresis" horiz-adv-x="559" d="M268 -9Q200 -9 151 20T74 100T47 214Q47 295 79 362T170 469T313 509Q376 509 420 484T488 413T512 307Q512 287 509 266T500 224H110L111 298H440L403 272Q406 285 407 296T409 318Q409
351 397 375T362 412T308 426Q265 426 235 408T187 357T160 287T152 210Q152 170 167 139T211 91T277 74Q321 74 349 94T396 146L483 102Q453 51 398 21T268 -9ZM440 573Q414 573 398 587T381 625Q381 660 401 678T452 696Q478 696 494 683T511 645Q511 609 491
591T440 573ZM236 573Q210 573 194 587T178 625Q178 660 198 678T249 696Q275 696 291 683T307 645Q307 609 287 591T236 573Z" />
<glyph unicode="&#xec;" glyph-name="igrave" horiz-adv-x="263" d="M243 500L127 0H19L135 500H243ZM209 744L249 576H172L106 744H209Z" />
<glyph unicode="&#xed;" glyph-name="iacute" horiz-adv-x="263" d="M243 500L127 0H19L135 500H243ZM263 744H379L235 576H146L263 744Z" />
<glyph unicode="&#xee;" glyph-name="icircumflex" horiz-adv-x="263" d="M243 500L127 0H19L135 500H243ZM41 570L185 738H296L362 570H280L229 676L132 570H41Z" />
<glyph unicode="&#xef;" glyph-name="idieresis" horiz-adv-x="250" d="M290 573Q266 573 251 586T235 623Q235 657 254 676T305 696Q330 696 345 683T360 646Q360 613 342 593T290 573ZM117 573Q92 573 77 587T62 623Q62 657 81 676T133 696Q157 696 172 683T188
646Q188 613 169 593T117 573ZM239 500L123 0H15L131 500H239Z" />
<glyph unicode="&#xf0;" glyph-name="eth" horiz-adv-x="585" d="M261 -10Q195 -10 147 20T72 101T46 215Q46 292 78 355T166 454T293 491Q343 491 380 473T437 422T458 344L445 338Q447 352 447 367T448 397Q448 499 403 582T260 727H369Q426 698 464 644T521
523T541 386Q541 305 524 233T471 107T383 21T261 -10ZM274 74Q309 74 336 92T383 140T413 206T424 280Q424 322 408 351T365 394T301 409Q268 409 240 392T193 345T163 281T152 208Q152 169 167 139T210 92T274 74ZM252 541L240 595L416 632L446 586L252 541ZM463
588L436 635L592 672L605 618L463 588Z" />
<glyph unicode="&#xf1;" glyph-name="ntilde" horiz-adv-x="589" d="M19 0L135 500H231L208 369L199 377Q220 441 271 475T387 510Q442 510 479 486T532 416T531 306L460 0H352L422 299Q435 357 413 389T340 422Q301 422 271 404T221 352T189 269L127 0H19ZM567
715Q555 646 520 611T441 575Q416 575 399 585T370 608T346 631T320 641Q304 641 291 623T270 575H200Q212 644 246 679T325 715Q349 715 365 705T395 682T420 659T446 649Q463 649 475 666T496 715H567Z" />
<glyph unicode="&#xf2;" glyph-name="ograve" horiz-adv-x="581" d="M272 -9Q202 -9 151 21T74 102T47 215Q47 299 79 365T171 470T309 509Q381 509 431 480T507 399T534 286Q534 202 501 135T410 30T272 -9ZM275 74Q319 74 353 103T407 182T427 289Q427 348 397
387T306 426Q262 426 228 397T174 319T154 211Q154 173 167 142T208 92T275 74ZM343 744L383 576H306L240 744H343Z" />
<glyph unicode="&#xf3;" glyph-name="oacute" horiz-adv-x="581" d="M272 -9Q202 -9 151 21T74 102T47 215Q47 299 79 365T171 470T309 509Q381 509 431 480T507 399T534 286Q534 202 501 135T410 30T272 -9ZM275 74Q319 74 353 103T407 182T427 289Q427 348 397
387T306 426Q262 426 228 397T174 319T154 211Q154 173 167 142T208 92T275 74ZM397 744H513L369 576H280L397 744Z" />
<glyph unicode="&#xf4;" glyph-name="ocircumflex" horiz-adv-x="581" d="M272 -9Q202 -9 151 21T74 102T47 215Q47 299 79 365T171 470T309 509Q381 509 431 480T507 399T534 286Q534 202 501 135T410 30T272 -9ZM275 74Q319 74 353 103T407 182T427 289Q427
348 397 387T306 426Q262 426 228 397T174 319T154 211Q154 173 167 142T208 92T275 74ZM175 570L319 738H430L496 570H414L363 676L266 570H175Z" />
<glyph unicode="&#xf5;" glyph-name="otilde" horiz-adv-x="581" d="M272 -9Q202 -9 151 21T74 102T47 215Q47 299 79 365T171 470T309 509Q381 509 431 480T507 399T534 286Q534 202 501 135T410 30T272 -9ZM275 74Q319 74 353 103T407 182T427 289Q427 348 397
387T306 426Q262 426 228 397T174 319T154 211Q154 173 167 142T208 92T275 74ZM536 715Q524 646 489 611T410 575Q385 575 368 585T339 608T315 631T289 641Q273 641 260 623T239 575H169Q181 644 215 679T294 715Q318 715 334 705T364 682T389 659T415 649Q432
649 444 666T465 715H536Z" />
<glyph unicode="&#xf6;" glyph-name="odieresis" horiz-adv-x="581" d="M272 -9Q202 -9 151 21T74 102T47 215Q47 299 79 365T171 470T309 509Q381 509 431 480T507 399T534 286Q534 202 501 135T410 30T272 -9ZM275 74Q319 74 353 103T407 182T427 289Q427 348
397 387T306 426Q262 426 228 397T174 319T154 211Q154 173 167 142T208 92T275 74ZM447 573Q421 573 405 587T388 625Q388 660 408 678T459 696Q485 696 501 683T518 645Q518 609 498 591T447 573ZM243 573Q217 573 201 587T185 625Q185 660 205 678T256 696Q282
696 298 683T314 645Q314 609 294 591T243 573Z" />
<glyph unicode="&#xf7;" glyph-name="divide" horiz-adv-x="611" d="M577 363L557 276H67L87 363H577ZM271 50Q243 50 225 65T207 107Q207 143 227 164T280 186Q308 186 325 170T343 127Q343 91 323 71T271 50ZM365 454Q336 454 319 470T301 512Q301 547 321 568T374
590Q402 590 419 574T437 531Q437 495 417 475T365 454Z" />
<glyph unicode="&#xf8;" glyph-name="oslash" horiz-adv-x="581" d="M272 -9Q202 -9 151 21T74 102T47 215Q47 299 79 365T171 470T309 509Q381 509 431 480T507 399T534 286Q534 202 501 135T410 30T272 -9ZM275 74Q319 74 353 103T407 182T427 289Q427 348 397
387T306 426Q262 426 228 397T174 319T154 211Q154 173 167 142T208 92T275 74ZM252 -25L770 526H838L321 -25H252Z" />
<glyph unicode="&#xf9;" glyph-name="ugrave" horiz-adv-x="587" d="M194 -8Q141 -8 103 16T48 85T46 193L117 500H225L157 203Q143 143 167 111T240 79Q279 79 307 97T356 149T386 231L449 500H557L441 0H346L368 132L377 123Q356 59 307 26T194 -8ZM348 736L388
568H311L245 736H348Z" />
<glyph unicode="&#xfa;" glyph-name="uacute" horiz-adv-x="587" d="M194 -8Q141 -8 103 16T48 85T46 193L117 500H225L157 203Q143 143 167 111T240 79Q279 79 307 97T356 149T386 231L449 500H557L441 0H346L368 132L377 123Q356 59 307 26T194 -8ZM402 736H518L374
568H285L402 736Z" />
<glyph unicode="&#xfb;" glyph-name="ucircumflex" horiz-adv-x="587" d="M194 -8Q141 -8 103 16T48 85T46 193L117 500H225L157 203Q143 143 167 111T240 79Q279 79 307 97T356 149T386 231L449 500H557L441 0H346L368 132L377 123Q356 59 307 26T194 -8ZM180
562L324 730H435L501 562H419L368 668L271 562H180Z" />
<glyph unicode="&#xfc;" glyph-name="udieresis" horiz-adv-x="587" d="M194 -8Q141 -8 103 16T48 85T46 193L117 500H225L157 203Q143 143 167 111T240 79Q279 79 307 97T356 149T386 231L449 500H557L441 0H346L368 132L377 123Q356 59 307 26T194 -8ZM452 565Q426
565 410 579T393 617Q393 652 413 670T464 688Q490 688 506 675T523 637Q523 601 503 583T452 565ZM248 565Q222 565 206 579T190 617Q190 652 210 670T261 688Q287 688 303 675T319 637Q319 601 299 583T248 565Z" />
<glyph unicode="&#xfd;" glyph-name="yacute" horiz-adv-x="511" d="M19 -215Q-21 -215 -50 -205T-97 -181L-61 -99Q-44 -114 -26 -121T16 -129Q47 -129 70 -113T115 -63L151 -2L67 500H176L209 208L222 91L283 203L447 500H566L214 -77Q186 -124 157 -154T94
-200T19 -215ZM387 736H503L359 568H270L387 736Z" />
<glyph unicode="&#xfe;" glyph-name="thorn" horiz-adv-x="602" d="M-30 -210L186 723H294L212 370L198 353Q215 425 266 466T387 508Q435 508 473 483T533 412T556 299Q556 236 538 180T488 82T410 15T313 -10Q267 -10 231 9T172 64T149 151L165 171L78 -210H-30ZM296
75Q341 75 375 105T430 185T450 292Q450 334 436 363T397 407T338 423Q293 423 258 394T203 314T183 203Q183 146 211 111T296 75Z" />
<glyph unicode="&#xff;" glyph-name="ydieresis" horiz-adv-x="511" d="M19 -215Q-21 -215 -50 -205T-97 -181L-61 -99Q-44 -114 -26 -121T16 -129Q47 -129 70 -113T115 -63L151 -2L67 500H176L209 208L222 91L283 203L447 500H566L214 -77Q186 -124 157 -154T94
-200T19 -215ZM437 565Q411 565 395 579T378 617Q378 652 398 670T449 688Q475 688 491 675T508 637Q508 601 488 583T437 565ZM233 565Q207 565 191 579T175 617Q175 652 195 670T246 688Q272 688 288 675T304 637Q304 601 284 583T233 565Z" />
<glyph unicode="&#x2013;" glyph-name="endash" horiz-adv-x="670" d="M604 310L583 218H72L93 310H604Z" />
<glyph unicode="&#x2014;" glyph-name="emdash" horiz-adv-x="1005" d="M939 310L919 218H72L93 310H939Z" />
<glyph unicode="&#x2018;" glyph-name="quoteleft" horiz-adv-x="251" d="M179 415Q144 415 123 437T102 496Q102 542 126 584T191 656T280 696L305 644Q268 640 241 624T197 587T173 550L175 548Q179 550 185 551T199 553Q226 553 241 536T256 494Q256 460 235
438T179 415Z" />
<glyph unicode="&#x2019;" glyph-name="quoteright" horiz-adv-x="251" d="M221 696Q258 696 277 672T296 611Q296 570 275 529T214 457T120 413L92 465Q130 472 157 487T201 522T226 563L224 564Q219 561 213 559T197 557Q172 557 157 576T142 618Q142 653 164
674T221 696Z" />
<glyph unicode="&#x201a;" glyph-name="quotesinglbase" horiz-adv-x="251" d="M348 133Q385 133 404 109T423 48Q423 7 402 -34T341 -106T247 -150L219 -98Q257 -91 284 -76T328 -41T353 0L351 1Q346 -2 340 -4T324 -6Q299 -6 284 13T269 55Q269 90 291 111T348 133Z" />
<glyph unicode="&#x201c;" glyph-name="quotedblleft" horiz-adv-x="449" d="M179 415Q144 415 123 437T102 496Q102 542 126 584T191 656T280 696L305 644Q268 640 241 624T197 587T173 550L175 548Q179 550 185 551T199 553Q226 553 241 536T256 494Q256 460
235 438T179 415ZM377 415Q342 415 321 437T300 496Q300 542 324 584T389 656T478 696L503 644Q466 640 439 624T395 587T371 550L373 548Q377 550 383 551T397 553Q424 553 439 536T454 494Q454 460 433 438T377 415Z" />
<glyph unicode="&#x201d;" glyph-name="quotedblright" horiz-adv-x="449" d="M221 696Q258 696 277 672T296 611Q296 570 275 529T214 457T120 413L92 465Q130 472 157 487T201 522T226 563L224 564Q219 561 213 559T197 557Q172 557 157 576T142 618Q142 653
164 674T221 696ZM419 696Q456 696 475 672T494 611Q494 570 473 529T412 457T318 413L290 465Q328 472 355 487T399 522T424 563L422 564Q417 561 411 559T395 557Q370 557 355 576T340 618Q340 653 362 674T419 696Z" />
<glyph unicode="&#x201e;" glyph-name="quotedblbase" horiz-adv-x="450" d="M348 133Q385 133 404 109T423 48Q423 7 402 -34T341 -106T247 -150L219 -98Q257 -91 284 -76T328 -41T353 0L351 1Q346 -2 340 -4T324 -6Q299 -6 284 13T269 55Q269 90 291 111T348
133ZM290 133Q327 133 346 109T365 48Q365 7 344 -34T283 -106T189 -150L161 -98Q199 -91 226 -76T270 -41T295 0L293 1Q288 -2 282 -4T266 -6Q241 -6 226 13T211 55Q211 90 233 111T290 133Z" />
<glyph unicode="&#x2022;" glyph-name="bullet" horiz-adv-x="424" d="M225 209Q170 209 137 241T103 322Q103 385 141 423T240 462Q296 462 328 429T361 349Q361 286 324 248T225 209Z" />
<glyph unicode="&#x2039;" glyph-name="guilsinglleft" horiz-adv-x="320" d="M324 461L126 236L129 304L225 69H128L46 265L219 461H324Z" />
<glyph unicode="&#x203a;" glyph-name="guilsinglright" horiz-adv-x="318" d="M-10 69L186 292V225L89 461H185L268 265L96 69H-10Z" />
</font>
</defs>
</svg>
