<?xml version="1.0" standalone="no"?>
<!DOCTYPE svg PUBLIC "-//W3C//DTD SVG 1.1//EN" "http://www.w3.org/Graphics/SVG/1.1/DTD/svg11.dtd">
<svg xmlns="http://www.w3.org/2000/svg">
<defs >
<font id="KantumruyPro" horiz-adv-x="627" ><font-face
    font-family="Kantumruy Pro Medium"
    units-per-em="1000"
    panose-1="0 0 0 0 0 0 0 0 0 0"
    ascent="920"
    descent="-260"
    alphabetic="0" />
<glyph unicode=" " glyph-name="space" horiz-adv-x="316" />
<glyph unicode="!" glyph-name="exclam" horiz-adv-x="276" d="M194 660V395L181 207H95L82 395V660H194ZM137 128Q171 128 191 110T211 59Q211 28 191 10T137 -9Q104 -9 85 9T65 59Q65 91 84 109T137 128Z" />
<glyph unicode="&quot;" glyph-name="quotedbl" horiz-adv-x="406" d="M349 685L324 434H247V685H349ZM176 685L151 434H74V685H176Z" />
<glyph unicode="#" glyph-name="numbersign" horiz-adv-x="656" d="M538 660L430 0H349L457 660H538ZM590 250V178H24V250H590ZM302 660L194 0H113L220 660H302ZM632 484V412H66V484H632Z" />
<glyph unicode="$" glyph-name="dollar" horiz-adv-x="610" d="M311 1Q247 1 194 18T101 65T36 135L102 207Q122 171 154 144T228 103T318 88Q381 88 419 112T457 182Q457 215 435 234T366 266L230 299Q147 318 105 360T63 465Q63 520 92 564T177 635T308 661Q391
661 452 629T556 533L491 468Q457 524 410 549T299 575Q254 575 224 562T180 528T165 480Q165 448 186 426T270 388L390 360Q447 348 484 326T539 272T558 194Q558 135 527 92T440 25T311 1ZM271 -96V756H348V-96H271Z" />
<glyph unicode="%" glyph-name="percent" horiz-adv-x="867" d="M174 0L603 660H694L264 0H174ZM201 669Q252 669 289 646T346 582T367 486Q367 432 347 391T289 326T201 303Q151 303 114 326T57 390T36 486Q36 541 56 582T114 646T201 669ZM201 591Q176 591 159
579T132 543T123 486Q123 454 132 431T158 394T201 381Q227 381 244 394T271 430T280 486Q280 519 271 542T245 578T201 591ZM665 357Q716 357 753 334T810 270T830 174Q830 119 810 78T753 14T665 -9Q615 -9 578 13T521 77T500 174Q500 229 520 270T578 334T665
357ZM665 279Q640 279 623 267T596 230T587 174Q587 142 596 118T622 82T665 69Q691 69 708 81T735 118T744 174Q744 206 735 230T709 266T665 279Z" />
<glyph unicode="&amp;" glyph-name="ampersand" horiz-adv-x="612" d="M250 -10Q187 -10 139 12T66 73T40 167Q40 208 55 246T108 316T212 370L247 385Q286 408 310 428T346 470T358 521Q358 554 339 572T286 590Q249 590 230 568T211 514Q211 497 216 480T237
439T284 374T368 268Q420 203 455 163T515 101T563 73T613 68L597 -10Q565 -10 539 -3T482 25T410 90T308 206Q248 277 210 323T152 402T123 461T115 516Q115 554 133 589T190 647T289 670Q339 670 374 652T427 602T446 530Q446 490 431 456T380 393T281 336L251
322Q208 299 183 278T147 233T136 176Q136 143 153 119T198 81T263 68Q314 68 350 86T419 138L431 153Q454 192 467 240T477 349L557 344Q558 280 541 219T485 112L465 91Q431 44 378 17T250 -10Z" />
<glyph unicode="&apos;" glyph-name="quotesingle" horiz-adv-x="233" d="M176 685L151 434H74V685H176Z" />
<glyph unicode="(" glyph-name="parenleft" horiz-adv-x="357" d="M281 745L337 690Q244 606 205 506T166 279Q166 151 205 51T337 -133L281 -188Q173 -103 118 14T63 279Q63 426 118 543T281 745Z" />
<glyph unicode=")" glyph-name="parenright" horiz-adv-x="357" d="M76 -188L21 -133Q114 -49 153 51T192 278Q192 406 153 506T21 690L76 745Q184 660 239 543T295 278Q295 131 240 14T76 -188Z" />
<glyph unicode="*" glyph-name="asterisk" horiz-adv-x="573" d="M306 505L384 425L459 322L394 274L319 378L267 477L286 491L306 505ZM267 505L286 491L306 477L254 378L179 274L114 322L189 425L267 505ZM72 604L194 564L294 514L286 491L279 469L168 488L47
527L72 604ZM327 730L326 602L311 491H286H263L246 602L245 730H327ZM502 604L526 527L404 488L294 469L286 491L279 514L379 564L502 604Z" />
<glyph unicode="+" glyph-name="plus" horiz-adv-x="604" d="M348 572V66H257V572H348ZM547 363V276H57V363H547Z" />
<glyph unicode="," glyph-name="comma" horiz-adv-x="267" d="M133 133Q174 133 195 104T216 30Q216 -6 202 -40T163 -103T100 -147L51 -106Q78 -96 99 -80T134 -43T153 -3L149 -1Q144 -4 138 -6T119 -8Q99 -8 79 8T58 59Q58 92 80 112T133 133Z" />
<glyph unicode="-" glyph-name="hyphen" horiz-adv-x="509" d="M424 314V215H85V314H424Z" />
<glyph unicode="." glyph-name="period" horiz-adv-x="280" d="M140 -9Q106 -9 86 10T65 61Q65 94 85 113T140 133Q174 133 194 114T215 61Q215 30 195 11T140 -9Z" />
<glyph unicode="/" glyph-name="slash" horiz-adv-x="441" d="M418 723L125 -70H24L317 723H418Z" />
<glyph unicode="0" glyph-name="zero" horiz-adv-x="612" d="M306 -10Q188 -10 123 77T58 330Q58 496 123 583T306 670Q423 670 488 583T554 330Q554 164 489 77T306 -10ZM306 80Q374 80 409 142T444 330Q444 456 409 518T306 580Q237 580 203 518T168 330Q168
204 202 142T306 80Z" />
<glyph unicode="1" glyph-name="one" horiz-adv-x="384" d="M186 0V453Q186 471 186 494T188 541Q157 506 118 483T35 448L19 542Q39 545 65 556T118 585T168 621T203 660H292V0H186Z" />
<glyph unicode="2" glyph-name="two" horiz-adv-x="568" d="M67 0V78Q156 143 218 195T318 292T374 376T392 458Q392 511 361 544T273 578Q215 578 181 537T141 422L47 463Q53 527 82 573T162 645T279 670Q351 670 401 642T476 567T502 462Q502 399 471 340T375
220T207 89V88Q220 89 239 89T278 90T311 91H514V0H67Z" />
<glyph unicode="3" glyph-name="three" horiz-adv-x="565" d="M284 -10Q193 -10 127 31T36 148L140 196Q152 141 187 111T285 81Q340 81 370 112T401 193Q401 226 389 247T352 279T289 290Q278 290 266 290T240 287V374Q249 373 257 373T274 373Q334 373 361 399T388
480Q388 528 360 553T283 579Q232 579 202 553T157 479L59 519Q73 565 105 599T184 652T288 671Q357 671 403 648T472 586T496 495Q496 457 485 429T456 380T417 349T376 334V332Q402 331 425 321T468 293T498 248T510 188Q510 129 481 85T401 15T284 -10Z" />
<glyph unicode="4" glyph-name="four" horiz-adv-x="603" d="M356 0V165H43V238Q45 242 47 245T54 254T66 272L325 660H456V248H565V165H456V0H356ZM142 248H356V487Q356 502 357 518T358 550T359 582H357Q350 567 341 550T321 517T301 485L149 259Q148 256 147
255T142 248Z" />
<glyph unicode="5" glyph-name="five" horiz-adv-x="563" d="M278 -10Q194 -10 138 27T50 139L149 190Q162 140 192 110T280 80Q319 80 347 96T391 140T406 209Q406 250 392 278T351 321T285 336Q242 336 209 322T156 279L69 296L107 660H481V569H191L169 380L167
368H169Q191 393 227 407T310 422Q372 422 417 396T486 323T510 215Q510 142 480 92T397 16T278 -10Z" />
<glyph unicode="6" glyph-name="six" horiz-adv-x="590" d="M320 670Q396 670 448 637T528 530L435 486Q422 528 393 553T313 578Q276 578 247 559T199 505T169 425T159 324Q159 320 159 314T159 299L163 296Q173 337 199 362T261 401T331 414Q393 414 440 389T513
317T540 206Q540 140 512 92T434 17T314 -10Q234 -10 177 31T89 149T58 328Q58 441 93 517T187 631T320 670ZM313 327Q277 327 250 312T206 268T190 204Q190 170 206 142T250 98T313 81Q370 81 402 114T435 205Q435 243 421 270T379 312T313 327Z" />
<glyph unicode="7" glyph-name="seven" horiz-adv-x="557" d="M36 660H525V573Q446 488 397 398T326 208T304 0H194Q196 168 256 318T443 596L464 568H36V660Z" />
<glyph unicode="8" glyph-name="eight" horiz-adv-x="600" d="M300 669Q398 669 456 622T515 494Q515 442 490 403T418 344V343Q476 324 509 282T542 178Q542 121 512 79T428 13T300 -10Q227 -10 173 13T88 78T58 178Q58 239 91 281T182 343V344Q136 363 110 402T84
494Q84 548 111 587T186 647T300 669ZM300 580Q249 580 220 554T190 482Q190 436 220 410T300 384Q349 384 380 410T411 482Q411 528 381 554T300 580ZM300 78Q341 78 370 91T416 130T433 189Q433 224 417 248T370 286T300 300Q260 300 230 287T184 249T167 189Q167
155 183 130T230 92T300 78Z" />
<glyph unicode="9" glyph-name="nine" horiz-adv-x="597" d="M286 670Q369 670 425 629T510 511T539 331Q539 217 509 141T422 28T286 -10Q206 -10 147 27T61 137L163 183Q175 137 205 109T289 80Q332 80 361 98T408 150T433 231T441 337Q441 343 441 348T440
358H436Q426 317 399 291T338 254T268 242Q206 242 159 267T85 339T58 448Q58 516 85 566T164 643T286 670ZM286 578Q228 578 196 544T164 448Q164 394 198 363T286 331Q322 331 350 347T394 390T410 455Q410 492 394 519T350 562T286 578Z" />
<glyph unicode=":" glyph-name="colon" horiz-adv-x="290" d="M152 368Q118 368 98 387T77 438Q77 471 97 490T152 509Q186 509 206 490T226 438Q226 406 206 387T152 368ZM152 -9Q118 -9 98 10T77 61Q77 94 97 113T152 133Q186 133 206 114T226 61Q226 30 206
11T152 -9Z" />
<glyph unicode=";" glyph-name="semicolon" horiz-adv-x="290" d="M144 133Q185 133 206 104T228 30Q228 -6 214 -40T174 -103T111 -147L62 -106Q89 -96 110 -80T145 -43T164 -3L160 -1Q155 -4 149 -6T131 -8Q110 -8 90 8T69 59Q69 92 91 112T144 133ZM152 368Q118
368 98 387T77 438Q77 471 97 490T152 509Q186 509 206 490T226 438Q226 406 206 387T152 368Z" />
<glyph unicode="&lt;" glyph-name="less" horiz-adv-x="604" d="M548 22L70 245V352L548 575V469L155 300L548 130V22Z" />
<glyph unicode="=" glyph-name="equal" horiz-adv-x="604" d="M538 455V369H66V455H538ZM538 249V163H66V249H538Z" />
<glyph unicode="&gt;" glyph-name="greater" horiz-adv-x="604" d="M56 575L534 352V245L56 22V128L449 297L56 467V575Z" />
<glyph unicode="?" glyph-name="question" horiz-adv-x="544" d="M211 206V356Q278 366 315 381T367 420T383 476Q383 507 370 530T332 565T267 577Q212 577 178 544T137 452L36 496Q47 547 77 586T156 647T275 670Q340 670 391 649T470 588T499 491Q499 431 475
393T409 335T316 307L313 206H211ZM270 -9Q237 -9 217 10T197 60Q197 91 217 110T270 129Q304 129 324 110T344 60Q344 29 324 10T270 -9Z" />
<glyph unicode="@" glyph-name="at" horiz-adv-x="923" d="M466 -189Q345 -189 253 -139T109 4T57 225Q57 322 89 402T179 540T315 629T485 661Q575 661 646 632T766 549T842 427T869 277Q869 207 852 154T805 65T740 11T666 -7Q609 -7 580 24T554 102Q532 57
491 31T401 4Q354 4 318 28T260 96T239 198Q239 252 255 300T300 385T369 444T457 465Q509 465 547 436T595 352L620 456H714L644 144Q641 133 640 124T638 106Q638 77 652 67T687 57Q718 57 745 81T790 154T807 274Q807 346 785 405T721 508T619 576T487 600Q408
600 343 574T229 499T154 380T127 225Q127 113 172 34T295 -87T469 -129Q544 -129 592 -109T673 -63L707 -114Q666 -145 611 -167T466 -189ZM439 78Q477 78 506 105T552 176T570 272Q570 309 558 335T524 375T472 389Q431 389 400 363T352 294T334 200Q334 162
346 135T382 93T439 78Z" />
<glyph unicode="A" glyph-name="A" horiz-adv-x="645" d="M628 0H514L454 174H189L128 0H17L258 660H388L628 0ZM217 260H426L322 569L217 260Z" />
<glyph unicode="B" glyph-name="B" horiz-adv-x="645" d="M95 0V660H354Q467 660 520 613T574 481Q574 430 545 388T456 335V334Q520 324 555 281T590 181Q590 97 531 49T360 0H95ZM201 87H358Q417 87 447 113T477 187Q477 236 447 261T358 287H201V87ZM201 375H342Q402
375 431 399T461 473Q461 522 432 546T342 571H201V375Z" />
<glyph unicode="C" glyph-name="C" horiz-adv-x="665" d="M628 176Q599 85 528 38T362 -10Q269 -10 201 31T96 148T59 330Q59 435 96 511T201 629T360 670Q425 670 476 652T564 597T618 504L519 461Q501 522 463 550T365 578Q307 578 263 549T195 465T171 330Q171
252 194 197T260 112T364 82Q423 82 466 114T525 210L628 176Z" />
<glyph unicode="D" glyph-name="D" horiz-adv-x="702" d="M326 660Q477 660 560 575T643 331Q643 171 560 86T326 0H95V660H326ZM324 90Q421 90 475 150T530 331Q530 411 506 464T435 543T324 570H203V90H324Z" />
<glyph unicode="E" glyph-name="E" horiz-adv-x="615" d="M95 0V660H559V569H203V378H483V289H203V91H573V0H95Z" />
<glyph unicode="F" glyph-name="F" horiz-adv-x="591" d="M558 569H203V376H483V284H203V0H95V660H558V569Z" />
<glyph unicode="G" glyph-name="G" horiz-adv-x="704" d="M354 -10Q265 -10 199 30T96 147T59 330Q59 435 97 511T205 628T368 670Q468 670 531 631T630 510L530 465Q512 522 471 550T368 578Q309 578 265 549T196 464T171 330Q171 251 194 195T261 110T370 81Q407
81 437 91T490 121T525 169T538 234V255H355V340H634V0H555L547 138L567 128Q544 63 491 27T354 -10Z" />
<glyph unicode="H" glyph-name="H" horiz-adv-x="718" d="M623 660V0H515V660H623ZM203 660V0H95V660H203ZM570 380V288H149V380H570Z" />
<glyph unicode="I" glyph-name="I" horiz-adv-x="298" d="M203 660V0H95V660H203Z" />
<glyph unicode="J" glyph-name="J" horiz-adv-x="564" d="M479 660V235Q479 120 418 55T246 -10Q168 -10 118 20T49 105T41 233L145 252Q135 165 159 124T247 82Q296 82 323 104T360 164T370 252V660H479Z" />
<glyph unicode="K" glyph-name="K" horiz-adv-x="646" d="M620 660L335 339L324 342L162 158L150 271L490 660H620ZM203 660V0H95V660H203ZM361 425L626 0H500L276 363L361 425Z" />
<glyph unicode="L" glyph-name="L" horiz-adv-x="579" d="M203 91H551V0H95V660H203V91Z" />
<glyph unicode="M" glyph-name="M" horiz-adv-x="854" d="M759 660V0H660V387L667 562H665L472 0H382L188 562H187L194 387V0H95V660H254L387 266L428 121H430L471 265L603 660H759Z" />
<glyph unicode="N" glyph-name="N" horiz-adv-x="718" d="M623 660V0H497L248 423L191 532H190L193 427V0H95V660H220L469 237L527 128H528L524 233V660H623Z" />
<glyph unicode="O" glyph-name="O" horiz-adv-x="726" d="M363 670Q457 670 525 629T630 512T667 330Q667 225 630 149T525 31T363 -10Q269 -10 201 31T96 148T59 330Q59 436 96 512T201 629T363 670ZM363 578Q303 578 260 549T194 464T171 330Q171 252 194 197T260
112T363 82Q423 82 465 111T531 196T555 330Q555 409 532 464T466 548T363 578Z" />
<glyph unicode="P" glyph-name="P" horiz-adv-x="612" d="M343 660Q447 660 508 605T570 453Q570 357 509 302T343 247H203V0H95V660H343ZM327 337Q393 337 425 366T458 453Q458 511 426 540T327 570H203V337H327Z" />
<glyph unicode="Q" glyph-name="Q" horiz-adv-x="726" d="M520 -198Q466 -198 421 -178T350 -113T324 3Q324 16 326 29T333 57L409 65Q405 51 403 40T400 18Q400 -33 416 -59T461 -95T521 -105Q557 -105 586 -96T633 -70L657 -156Q634 -176 595 -187T520 -198ZM363
670Q457 670 525 629T630 512T667 330Q667 225 630 149T525 31T363 -10Q269 -10 201 31T96 148T59 330Q59 436 96 512T201 629T363 670ZM363 578Q303 578 260 549T194 464T171 330Q171 252 194 197T260 112T363 82Q423 82 465 111T531 196T555 330Q555 409 532
464T466 548T363 578Z" />
<glyph unicode="R" glyph-name="R" horiz-adv-x="654" d="M360 660Q464 660 524 608T585 465Q585 403 558 361T479 296T360 268L350 264H202V0H95V660H360ZM350 352Q410 352 441 378T473 461Q473 518 441 544T350 570H202V352H350ZM415 330L622 0H498L323 290L415 330Z" />
<glyph unicode="S" glyph-name="S" horiz-adv-x="623" d="M314 670Q401 670 464 638T572 539L504 469Q468 527 421 553T309 579Q263 579 234 566T190 531T175 482Q175 449 197 427T276 391L400 362Q493 341 533 299T573 189Q573 128 541 83T452 14T319 -10Q252
-10 197 7T101 56T33 128L102 203Q122 167 154 140T228 97T320 81Q364 81 395 92T444 125T461 177Q461 207 442 229T370 263L235 294Q180 307 141 330T82 387T62 468Q62 525 92 570T179 643T314 670Z" />
<glyph unicode="T" glyph-name="T" horiz-adv-x="602" d="M574 660V569H355V0H246V569H28V660H574Z" />
<glyph unicode="U" glyph-name="U" horiz-adv-x="690" d="M608 660V254Q608 122 541 56T345 -10Q218 -10 150 56T82 254V660H191V263Q191 178 226 130T345 82Q428 82 464 130T500 263V660H608Z" />
<glyph unicode="V" glyph-name="V" horiz-adv-x="639" d="M620 660L383 0H257L19 660H134L283 215L321 90L358 215L507 660H620Z" />
<glyph unicode="W" glyph-name="W" horiz-adv-x="955" d="M217 0L25 660H140L284 93L425 660H534L676 92L819 660H929L738 0H613L511 394L479 547H477L445 394L344 0H217Z" />
<glyph unicode="X" glyph-name="X" horiz-adv-x="602" d="M580 0H453L298 254L143 0H19L240 335L36 660H163L307 419L451 660H570L365 339L580 0Z" />
<glyph unicode="Y" glyph-name="Y" horiz-adv-x="583" d="M572 660L345 252V0H237V252L10 660H129L239 451L291 346L344 451L454 660H572Z" />
<glyph unicode="Z" glyph-name="Z" horiz-adv-x="609" d="M137 52L119 90H566V0H47V86L464 608L483 570H55V660H553V574L137 52Z" />
<glyph unicode="[" glyph-name="bracketleft" horiz-adv-x="357" d="M329 640H182V-84H329V-168H86V724H329V640Z" />
<glyph unicode="\" glyph-name="backslash" horiz-adv-x="441" d="M24 723H125L418 -70H317L24 723Z" />
<glyph unicode="]" glyph-name="bracketright" horiz-adv-x="357" d="M29 -84H175V640H29V724H272V-168H29V-84Z" />
<glyph unicode="^" glyph-name="asciicircum" horiz-adv-x="577" d="M27 355L240 728H337L550 355H449L288 648L129 355H27Z" />
<glyph unicode="_" glyph-name="underscore" horiz-adv-x="536" d="M536 -86V-178H0V-86H536Z" />
<glyph unicode="`" glyph-name="grave" horiz-adv-x="504" d="M269 744L343 576H260L162 744H269Z" />
<glyph unicode="a" glyph-name="a" horiz-adv-x="542" d="M360 322Q360 371 334 399T262 427Q218 427 188 406T143 338L53 373Q71 435 125 472T267 510Q326 510 371 491T442 431T468 332V110Q468 70 504 70Q512 70 521 71T537 75L531 4Q521 -1 507 -4T473 -8Q443
-8 418 3T379 38T365 98V109L383 110Q376 70 350 43T286 3T210 -10Q141 -10 96 24T50 125Q50 179 83 215T185 266L374 305V234L240 205Q199 197 179 181T158 134Q158 104 179 87T237 70Q260 70 282 76T321 97T349 132T360 184V322Z" />
<glyph unicode="b" glyph-name="b" horiz-adv-x="611" d="M346 -10Q280 -10 233 29T171 131L182 147L175 0H81V723H189V368L177 385Q195 440 239 475T349 510Q408 510 455 479T531 390T559 249Q559 168 531 110T455 21T346 -10ZM319 76Q381 76 416 122T451 250Q451
332 417 378T320 424Q280 424 251 402T205 341T189 248Q189 195 205 157T251 97T319 76Z" />
<glyph unicode="c" glyph-name="c" horiz-adv-x="547" d="M291 510Q350 510 392 492T462 442T503 369L402 329Q391 377 364 401T291 426Q249 426 219 406T173 346T157 249Q157 193 173 154T220 94T292 74Q325 74 349 85T388 119T409 172L507 139Q494 94 466 61T393
9T293 -10Q220 -10 165 21T80 110T49 250Q49 331 80 389T165 479T291 510Z" />
<glyph unicode="d" glyph-name="d" horiz-adv-x="611" d="M264 -10Q204 -10 156 21T80 110T52 249Q52 333 81 391T159 479T269 510Q333 510 376 474T434 378L422 367V723H530V0H434L426 142L440 140Q433 93 408 60T345 8T264 -10ZM291 76Q330 76 359 97T405 159T422
255Q422 308 406 346T361 404T294 424Q231 424 196 378T160 250Q160 168 195 122T291 76Z" />
<glyph unicode="e" glyph-name="e" horiz-adv-x="561" d="M294 -10Q221 -10 166 21T80 110T49 250Q49 332 79 390T164 479T288 510Q359 510 409 480T485 398T512 277Q512 260 511 246T509 222H119V296H461L408 280Q408 327 394 359T352 409T288 426Q246 426 216
406T169 346T153 249Q153 192 170 153T219 94T294 74Q340 74 370 93T417 147L503 109Q486 72 456 45T384 4T294 -10Z" />
<glyph unicode="f" glyph-name="f" horiz-adv-x="382" d="M281 732Q312 732 336 725T375 706L356 631Q346 638 333 642T301 646Q262 646 239 626T216 562V489L220 464V0H112V570Q112 622 133 658T192 713T281 732ZM371 500V416H24V500H371Z" />
<glyph unicode="g" glyph-name="g" horiz-adv-x="527" d="M511 607L526 525Q523 526 520 526T513 526Q467 526 443 505T419 444L370 467Q370 507 386 539T432 589T502 608Q504 608 506 608T511 607ZM354 79Q429 79 471 45T513 -48Q513 -101 481 -138T394 -195T266
-215Q145 -215 88 -178T30 -83Q30 -42 59 -13T155 21L150 6Q107 15 82 39T56 106Q56 147 88 177T179 213L235 187H221Q178 184 159 168T139 129Q139 104 157 92T208 79H354ZM267 -137Q319 -137 354 -127T406 -100T424 -62Q424 -37 405 -23T342 -9H185Q157 -9 138
-24T118 -65Q118 -97 157 -117T267 -137ZM264 510Q329 510 376 489T450 431T476 342Q476 291 450 253T376 195T264 174Q161 174 107 219T52 342Q52 393 78 430T152 489T264 510ZM264 438Q219 438 189 412T159 342Q159 298 189 272T264 246Q309 246 339 272T369
342Q369 386 340 412T264 438Z" />
<glyph unicode="h" glyph-name="h" horiz-adv-x="602" d="M81 0V723H189V415Q212 463 253 486T348 510Q399 510 439 490T503 428T527 325V0H419V293Q419 365 390 394T316 423Q285 423 256 407T208 357T189 267V0H81Z" />
<glyph unicode="i" glyph-name="i" horiz-adv-x="269" d="M189 500V0H81V500H189ZM138 582Q102 582 83 599T63 650Q63 683 82 700T138 718Q174 718 193 701T212 650Q212 617 193 600T138 582Z" />
<glyph unicode="j" glyph-name="j" horiz-adv-x="257" d="M19 -215Q-14 -215 -40 -207T-86 -183L-68 -100Q-56 -111 -39 -118T0 -126Q31 -126 50 -105T69 -34V500H177V-44Q177 -106 156 -144T98 -198T19 -215ZM379 582Q343 582 324 599T304 650Q304 683 323 700T379
718Q415 718 434 701T453 650Q453 617 434 600T379 582Z" />
<glyph unicode="k" glyph-name="k" horiz-adv-x="567" d="M543 500L325 270L302 256L154 96V217L416 500H543ZM189 723V0H81V723H189ZM338 332L553 0H429L260 270L338 332Z" />
<glyph unicode="l" glyph-name="l" horiz-adv-x="295" d="M185 723V142Q185 108 195 91T235 74Q251 74 262 76T289 85L278 8Q264 0 242 -5T199 -10Q129 -10 103 28T77 132V723H185Z" />
<glyph unicode="m" glyph-name="m" horiz-adv-x="937" d="M81 0V500H176L181 411Q206 460 250 485T345 510Q399 510 443 485T509 408Q524 442 551 464T613 498T681 510Q729 510 769 490T835 429T860 325V0H752V307Q752 368 723 395T651 422Q617 422 588 405T542
355T525 274V0H417V307Q417 368 388 395T315 422Q286 422 257 406T208 356T189 268V0H81Z" />
<glyph unicode="n" glyph-name="n" horiz-adv-x="602" d="M81 0V500H176L183 364L169 377Q188 445 236 477T348 510Q399 510 439 490T503 428T527 325V0H419V293Q419 364 390 393T316 422Q285 422 256 407T208 357T189 268V0H81Z" />
<glyph unicode="o" glyph-name="o" horiz-adv-x="584" d="M292 510Q363 510 417 479T503 390T535 250Q535 169 504 111T418 21T292 -10Q221 -10 166 21T80 110T49 250Q49 331 80 389T166 479T292 510ZM292 426Q250 426 220 406T174 346T157 250Q157 193 173 154T220
95T292 74Q334 74 364 94T410 154T427 250Q427 307 411 346T364 405T292 426Z" />
<glyph unicode="p" glyph-name="p" horiz-adv-x="611" d="M81 -210V500H177L184 353L171 369Q186 432 233 471T348 510Q408 510 456 479T531 390T559 251Q559 169 531 111T455 21T345 -10Q282 -10 239 25T177 115L189 133V-210H81ZM319 76Q380 76 415 122T451
250Q451 332 417 378T321 424Q282 424 252 403T206 343T189 250Q189 197 205 158T250 98T319 76Z" />
<glyph unicode="q" glyph-name="q" horiz-adv-x="611" d="M422 -210V150L436 136Q425 67 377 29T264 -10Q204 -10 156 21T80 110T52 251Q52 333 81 391T159 479T269 510Q335 510 382 470T441 363L426 357L434 500H530V-210H422ZM291 76Q331 76 360 98T406 159T422
252Q422 308 406 346T361 404T293 424Q231 424 196 378T160 250Q160 168 195 122T291 76Z" />
<glyph unicode="r" glyph-name="r" horiz-adv-x="398" d="M81 0V500H174L182 405Q200 455 237 482T329 510Q345 510 358 508T382 498L368 406Q359 410 346 412T309 415Q280 415 252 398T207 348T189 265V0H81Z" />
<glyph unicode="s" glyph-name="s" horiz-adv-x="512" d="M262 -10Q190 -10 131 18T36 100L103 163Q125 120 166 96T263 72Q306 72 333 89T360 136Q360 156 348 170T299 193L204 214Q125 232 92 267T58 356Q58 397 81 431T150 488T261 510Q333 510 384 483T463
407L396 348Q378 389 341 408T264 428Q233 428 211 420T177 397T165 363Q165 343 180 327T232 303L339 280Q409 265 438 232T468 150Q468 79 414 35T262 -10Z" />
<glyph unicode="t" glyph-name="t" horiz-adv-x="405" d="M222 648V152Q222 114 241 96T292 77Q318 77 336 85T370 108L392 32Q369 12 337 1T267 -10Q201 -10 158 23T114 134V618L222 648ZM384 500V416H23V500H384Z" />
<glyph unicode="u" glyph-name="u" horiz-adv-x="599" d="M250 -10Q201 -10 162 8T100 66T76 169V500H184V196Q184 136 208 107T287 78Q312 78 334 87T373 114T401 161T411 227V500H519V0H423L419 87Q403 55 379 33T322 1T250 -10Z" />
<glyph unicode="v" glyph-name="v" horiz-adv-x="519" d="M398 500H511L320 0H199L8 500H125L260 90L398 500Z" />
<glyph unicode="w" glyph-name="w" horiz-adv-x="842" d="M707 500H823L661 0H540L418 371L301 0H181L19 500H135L245 101L367 500H475L596 101L707 500Z" />
<glyph unicode="x" glyph-name="x" horiz-adv-x="535" d="M158 500L293 284L318 281L514 0H387L245 224L217 231L28 500H158ZM509 500L322 234L294 235L143 0H20L223 283L249 281L386 500H509Z" />
<glyph unicode="y" glyph-name="y" horiz-adv-x="518" d="M509 500L301 -54Q281 -110 257 -145T198 -198T116 -215Q81 -215 51 -206T-1 -180L25 -99Q42 -115 63 -122T108 -129Q138 -129 158 -114T193 -58L214 -3L162 122L12 500H132L239 180L265 89L296 187L398 500H509Z" />
<glyph unicode="z" glyph-name="z" horiz-adv-x="509" d="M48 0V73L281 360L336 419L256 417H49V500H456V427L225 143L168 81L257 83H465V0H48Z" />
<glyph unicode="{" glyph-name="braceleft" horiz-adv-x="369" d="M332 -188Q231 -188 188 -154T144 -48V135Q144 190 118 214T32 238V318Q91 318 117 342T144 422V605Q144 676 187 710T332 745V668Q280 668 258 652T236 601V405Q236 354 209 322T131 279Q182
266 209 235T236 152V-44Q236 -79 258 -95T332 -111V-188Z" />
<glyph unicode="|" glyph-name="bar" horiz-adv-x="266" d="M180 724V-168H86V724H180Z" />
<glyph unicode="}" glyph-name="braceright" horiz-adv-x="369" d="M38 745Q139 745 182 711T226 605V422Q226 367 252 343T338 319V238Q278 238 252 214T226 135V-48Q226 -119 183 -153T38 -188V-111Q89 -111 111 -95T134 -44V152Q134 203 160 234T238 278Q187
290 161 321T134 404V600Q134 636 112 652T38 668V745Z" />
<glyph unicode="~" glyph-name="asciitilde" horiz-adv-x="556" d="M513 400Q508 321 473 280T375 239Q340 239 316 249T272 273T234 298T193 309Q168 309 155 291T135 240H43Q49 320 83 361T182 402Q216 402 241 392T285 367T322 342T363 331Q388 331 402 349T421
400H513Z" />
<glyph unicode="&#xa0;" glyph-name="uni00A0" horiz-adv-x="316" />
<glyph unicode="&#xa1;" glyph-name="exclamdown" horiz-adv-x="270" d="M79 -160V105L92 293H178L191 105V-160H79ZM135 372Q102 372 82 390T62 441Q62 472 82 490T135 509Q168 509 188 491T208 441Q208 409 188 391T135 372Z" />
<glyph unicode="&#xa2;" glyph-name="cent" horiz-adv-x="554" d="M302 -10Q228 -10 173 21T87 110T57 250Q57 331 87 389T173 479T300 510Q358 510 400 492T469 443T511 369L422 331Q410 381 379 407T302 434Q236 434 195 387T153 249Q153 158 195 112T302 66Q335
66 360 77T403 112T428 170L515 140Q502 94 473 61T401 9T302 -10ZM258 -100V600H334V-100H258Z" />
<glyph unicode="&#xa3;" glyph-name="sterling" horiz-adv-x="601" d="M71 277V343H456V277H71ZM154 -9Q104 -9 74 14T43 77Q43 116 76 141T163 167Q202 167 231 157T284 133T329 104T372 80T425 70Q464 70 482 92T501 163L577 159Q580 79 544 35T443 -9Q405 -9
374 2T317 31T265 67T215 96T160 108Q138 108 127 100T115 77Q115 62 128 54T161 45Q195 45 212 60T235 102T241 161Q241 201 227 236T183 321Q163 356 152 382T136 430T131 477Q131 535 158 578T234 646T345 670Q428 670 479 630T550 508L460 467Q447 523 420
553T341 583Q289 583 257 555T225 473Q225 455 229 438T241 401T265 350Q290 303 304 261T319 178Q319 134 303 91T250 19T154 -9Z" />
<glyph unicode="&#xa4;" glyph-name="currency" horiz-adv-x="653" d="M327 536Q388 536 435 510T508 437T535 330Q535 269 509 222T435 149T327 122Q266 122 219 148T145 222T118 330Q118 390 145 436T219 509T327 536ZM327 451Q276 451 244 418T211 330Q211
275 243 241T327 207Q378 207 410 241T442 330Q442 384 410 417T327 451ZM122 598L245 472L185 413L57 533L122 598ZM184 247L242 188L122 59L57 124L184 247ZM469 244L596 124L531 59L410 184L469 244ZM531 598L596 533L471 412L412 471L531 598Z" />
<glyph unicode="&#xa5;" glyph-name="yen" horiz-adv-x="617" d="M258 0V114H72V167H258V241H72V298H195L243 294L29 660H146L266 424L308 330H310L352 425L471 660H588L374 294L423 298H546V241H358V167H546V114H358V0H258Z" />
<glyph unicode="&#xa6;" glyph-name="brokenbar" horiz-adv-x="266" d="M180 724V355H86V724H180ZM180 201V-168H86V201H180Z" />
<glyph unicode="&#xa7;" glyph-name="section" horiz-adv-x="575" d="M394 124L346 172Q383 175 408 185T447 212T460 252Q460 283 441 302T372 330L228 357Q157 371 123 410T89 503Q89 552 114 589T187 648T297 670Q367 670 418 646T503 573L436 516Q410 556
375 573T293 591Q237 591 208 569T178 513Q178 482 196 465T267 437L382 416Q443 405 479 386T530 338T546 273Q546 214 508 174T394 124ZM278 -110Q198 -110 142 -83T57 -11L123 48Q145 11 185 -11T281 -33Q337 -33 369 -11T402 48Q402 72 385 88T327 114L180
145Q133 155 100 173T48 220T29 292Q29 330 47 358T96 405T168 430L206 386Q178 378 157 368T126 342T115 306Q115 277 137 257T209 226L352 199Q398 190 428 171T473 124T488 58Q488 9 463 -29T391 -88T278 -110Z" />
<glyph unicode="&#xa8;" glyph-name="dieresis" horiz-adv-x="504" d="M150 697Q180 697 197 680T215 636Q215 607 198 591T150 574Q121 574 104 590T86 636Q86 663 103 680T150 697ZM353 697Q383 697 400 680T418 636Q418 607 401 591T353 574Q324 574 307 590T289
636Q289 663 306 680T353 697Z" />
<glyph unicode="&#xa9;" glyph-name="copyright" horiz-adv-x="800" d="M400 -10Q299 -10 222 34T102 156T58 330Q58 428 101 504T222 625T400 670Q502 670 578 626T698 505T742 330Q742 233 699 156T579 35T400 -10ZM400 58Q480 58 540 94T635 191T669 330Q669
408 635 469T541 566T400 602Q320 602 259 566T164 469T130 330Q130 252 164 191T259 94T400 58ZM407 141Q321 141 273 191T224 328Q224 415 272 465T407 516Q468 516 508 489T566 414L496 381Q485 411 463 425T408 439Q361 439 334 410T307 328Q307 277 334 248T408
218Q443 218 467 233T502 280L568 251Q548 197 508 169T407 141Z" />
<glyph unicode="&#xaa;" glyph-name="ordfeminine" horiz-adv-x="396" d="M138 319Q87 319 58 343T29 408Q29 449 53 472T138 506L251 527V483L169 465Q137 459 125 448T112 417Q112 399 125 389T161 378Q178 378 196 384T227 406T240 450V540Q240 569 224 585T179
602Q152 602 130 589T96 541L30 567Q41 609 79 636T180 664Q249 664 287 633T325 540V407Q325 389 333 383T353 376Q369 376 376 379L369 329Q361 325 350 322T326 319Q292 319 272 338T251 394V412L264 405Q257 381 240 362T196 331T138 319ZM31 185V248H360V185H31Z"
/>
<glyph unicode="&#xab;" glyph-name="guillemotleft" horiz-adv-x="518" d="M276 461L149 265L276 69H172L44 265L172 461H276ZM472 461L345 265L472 69H368L240 265L368 461H472Z" />
<glyph unicode="&#xac;" glyph-name="logicalnot" horiz-adv-x="604" d="M543 317V122H447V317H543ZM543 363V276H61V363H543Z" />
<glyph unicode="&#xad;" glyph-name="uni00AD" horiz-adv-x="0" />
<glyph unicode="&#xae;" glyph-name="registered" horiz-adv-x="800" d="M400 -10Q299 -10 222 34T102 156T58 330Q58 428 101 504T222 625T400 670Q502 670 578 626T698 505T742 330Q742 233 699 156T579 35T400 -10ZM471 146L379 296L443 317L559 146H471ZM400
58Q480 58 540 94T635 191T669 330Q669 408 635 469T541 566T400 602Q320 602 259 566T164 469T130 330Q130 252 164 191T259 94T400 58ZM261 146V514H416Q476 514 513 482T551 397Q551 342 513 311T411 279H337V146H261ZM337 334H406Q439 334 457 349T475 394Q475
424 457 439T406 454H337V334Z" />
<glyph unicode="&#xaf;" glyph-name="overscore" horiz-adv-x="504" d="M421 664V587H83V664H421Z" />
<glyph unicode="&#xb0;" glyph-name="degree" horiz-adv-x="466" d="M233 330Q180 330 140 351T77 411T54 500Q54 550 76 588T139 648T233 670Q287 670 326 649T389 589T412 500Q412 450 389 411T327 351T233 330ZM233 406Q274 406 300 432T327 500Q327 541 301
567T233 593Q192 593 166 567T139 500Q139 459 165 433T233 406Z" />
<glyph unicode="&#xb1;" glyph-name="plusminus" horiz-adv-x="604" d="M346 643V162H259V643H346ZM547 445V359H57V445H547ZM547 85V0H57V85H547Z" />
<glyph unicode="&#xb2;" glyph-name="uni00B2" horiz-adv-x="367" d="M36 333V389Q59 405 82 421T126 453Q171 488 196 513T232 560T243 602Q243 630 226 648T177 667Q144 667 125 644T104 579L24 600Q28 663 69 699T180 735Q232 735 266 717T316 670T333 608Q333
580 320 552T279 497T211 439Q198 430 181 420T147 400V398Q158 400 180 401T217 402H340V333H36Z" />
<glyph unicode="&#xb3;" glyph-name="uni00B3" horiz-adv-x="359" d="M180 735Q247 735 283 705T319 625Q319 583 295 560T240 533V531Q276 530 302 508T328 442Q328 390 285 359T174 327Q111 327 72 352T18 426L98 457Q104 425 122 409T174 393Q205 393 223 409T242
452Q242 481 222 492T168 504Q164 504 161 504T152 503V557Q156 556 160 556T166 556Q198 556 215 570T233 611Q233 639 218 653T174 668Q147 668 129 654T106 610L29 635Q41 685 82 710T180 735Z" />
<glyph unicode="&#xb4;" glyph-name="acute" horiz-adv-x="578" d="M272 744H380L282 576H199L272 744Z" />
<glyph unicode="&#xb5;" glyph-name="uni00B5" horiz-adv-x="605" d="M81 -210V500H189V198Q189 137 215 108T292 78Q326 78 354 94T399 144T416 234V500H524V0H432L426 89Q404 41 363 16T274 -10Q243 -10 216 1T171 35L189 58V-210H81Z" />
<glyph unicode="&#xb6;" glyph-name="paragraph" horiz-adv-x="679" d="M293 -100V191Q218 191 161 219T71 300T38 425Q38 498 72 550T168 631T312 660H598V-100H507V574H385V-100H293ZM291 277V574Q240 574 205 556T150 504T131 425Q131 380 150 346T204 295T291 277Z" />
<glyph unicode="&#xb7;" glyph-name="middot" horiz-adv-x="241" d="M127 284Q93 284 73 303T52 354Q52 387 72 406T127 426Q161 426 181 407T202 354Q202 322 182 303T127 284Z" />
<glyph unicode="&#xb8;" glyph-name="cedilla" horiz-adv-x="508" d="M202 6L242 30Q308 14 337 -18T366 -97Q366 -147 331 -180T240 -214Q207 -214 184 -206T142 -184L164 -121Q177 -130 192 -137T230 -144Q258 -144 275 -127T292 -78Q292 -52 273 -33T202 6Z" />
<glyph unicode="&#xb9;" glyph-name="uni00B9" horiz-adv-x="254" d="M132 730H204V333H120V576Q120 591 120 609T122 645Q100 625 73 610T14 588V660Q33 664 56 674T100 700T132 730Z" />
<glyph unicode="&#xba;" glyph-name="ordmasculine" horiz-adv-x="377" d="M188 319Q116 319 72 365T27 492Q27 573 71 618T188 664Q262 664 306 619T350 492Q350 411 306 365T188 319ZM37 185V248H340V185H37ZM188 381Q227 381 245 409T264 492Q264 546 246 574T188
603Q150 603 132 575T113 492Q113 437 131 409T188 381Z" />
<glyph unicode="&#xbb;" glyph-name="guillemotright" horiz-adv-x="518" d="M242 69L369 265L242 461H346L473 265L346 69H242ZM46 69L172 265L46 461H149L277 265L149 69H46Z" />
<glyph unicode="&#xbc;" glyph-name="onequarter" horiz-adv-x="793" d="M132 921H204V524H120V767Q120 782 120 800T122 836Q100 816 73 801T14 779V851Q33 855 56 865T100 891T132 921ZM94 0L559 660H648L183 0H94ZM774 150V92H708V-4H635V92H439V134L610 393H708V150H774ZM517
150H635V258Q635 275 636 294T638 333H635Q629 322 620 306T604 277L517 150Z" />
<glyph unicode="&#xbd;" glyph-name="onehalf" horiz-adv-x="856" d="M132 921H204V524H120V767Q120 782 120 800T122 836Q100 816 73 801T14 779V851Q33 855 56 865T100 891T132 921ZM94 0L559 660H648L183 0H94ZM524 -4V52Q547 68 570 84T614 116Q659 151 684
176T720 223T731 265Q731 293 714 311T665 330Q632 330 613 307T592 242L512 263Q516 326 557 362T668 398Q720 398 754 380T804 333T821 271Q821 243 808 215T767 160T699 102Q686 93 669 83T635 63V61Q646 63 668 64T705 65H828V-4H524Z" />
<glyph unicode="&#xbe;" glyph-name="threequarters" horiz-adv-x="898" d="M180 926Q247 926 283 896T319 816Q319 774 295 751T240 724V722Q276 721 302 699T328 633Q328 581 285 550T174 518Q111 518 72 543T18 617L98 648Q104 616 122 600T174 584Q205 584
223 600T242 643Q242 672 222 683T168 695Q164 695 161 695T152 694V748Q156 747 160 747T166 747Q198 747 215 761T233 802Q233 830 218 844T174 859Q147 859 129 845T106 801L29 826Q41 876 82 901T180 926ZM199 0L664 660H753L288 0H199ZM879 150V92H813V-4H740V92H544V134L715
393H813V150H879ZM622 150H740V258Q740 275 741 294T743 333H740Q734 322 725 306T709 277L622 150Z" />
<glyph unicode="&#xbf;" glyph-name="questiondown" horiz-adv-x="544" d="M333 294V144Q267 134 230 119T177 81T161 24Q161 -8 174 -30T213 -65T277 -77Q333 -77 367 -44T408 48L509 4Q498 -47 468 -86T388 -148T270 -170Q204 -170 154 -149T75 -88T46 9Q46
68 70 106T135 166T228 193L232 294H333ZM274 508Q308 508 328 490T348 440Q348 408 328 390T274 371Q240 371 220 389T200 440Q200 471 220 489T274 508Z" />
<glyph unicode="&#xc0;" glyph-name="Agrave" horiz-adv-x="645" d="M628 0H514L454 174H189L128 0H17L258 660H388L628 0ZM217 260H426L322 569L217 260ZM313 895L378 736H296L209 895H313Z" />
<glyph unicode="&#xc1;" glyph-name="Aacute" horiz-adv-x="645" d="M628 0H514L454 174H189L128 0H17L258 660H388L628 0ZM217 260H426L322 569L217 260ZM336 895H440L354 736H272L336 895Z" />
<glyph unicode="&#xc2;" glyph-name="Acircumflex" horiz-adv-x="645" d="M628 0H514L454 174H189L128 0H17L258 660H388L628 0ZM217 260H426L322 569L217 260ZM484 736H398L322 839L246 736H160L266 895H378L484 736Z" />
<glyph unicode="&#xc3;" glyph-name="Atilde" horiz-adv-x="645" d="M628 0H514L454 174H189L128 0H17L258 660H388L628 0ZM217 260H426L322 569L217 260ZM507 875Q502 806 473 771T393 735Q365 735 346 745T312 767T284 789T254 799Q233 799 223 783T207 735H136Q141
804 171 839T253 875Q280 875 299 865T332 843T360 821T389 811Q409 811 420 827T435 875H507Z" />
<glyph unicode="&#xc4;" glyph-name="Adieresis" horiz-adv-x="645" d="M628 0H514L454 174H189L128 0H17L258 660H388L628 0ZM217 260H426L322 569L217 260ZM220 857Q250 857 267 840T285 796Q285 767 268 751T220 734Q191 734 174 750T156 796Q156 823 173 840T220
857ZM423 857Q453 857 470 840T488 796Q488 767 471 751T423 734Q394 734 377 750T359 796Q359 823 376 840T423 857Z" />
<glyph unicode="&#xc5;" glyph-name="Aring" horiz-adv-x="645" d="M628 0H514L454 174H189L128 0H17L258 660H388L628 0ZM217 260H426L322 569L217 260ZM321 842Q378 842 413 810T448 725Q448 671 413 639T321 606Q264 606 229 638T193 725Q193 777 228 809T321
842ZM321 787Q293 787 275 770T257 725Q257 698 275 680T321 662Q349 662 367 680T385 724Q385 752 367 769T321 787Z" />
<glyph unicode="&#xc6;" glyph-name="AE" horiz-adv-x="910" d="M529 89H868V0H424V210H218L114 0H1L338 660H854V571H529V376H777V290H529V89ZM255 294H424V573H397L255 294Z" />
<glyph unicode="&#xc7;" glyph-name="Ccedilla" horiz-adv-x="665" d="M628 176Q599 85 528 38T362 -10Q269 -10 201 31T96 148T59 330Q59 435 96 511T201 629T360 670Q425 670 476 652T564 597T618 504L519 461Q501 522 463 550T365 578Q307 578 263 549T195
465T171 330Q171 252 194 197T260 112T364 82Q423 82 466 114T525 210L628 176ZM295 6L335 30Q401 14 430 -18T459 -97Q459 -147 424 -180T333 -214Q300 -214 277 -206T235 -184L257 -121Q270 -130 285 -137T323 -144Q351 -144 368 -127T385 -78Q385 -52 366 -33T295
6Z" />
<glyph unicode="&#xc8;" glyph-name="Egrave" horiz-adv-x="615" d="M95 0V660H559V569H203V378H483V289H203V91H573V0H95ZM313 895L378 736H296L209 895H313Z" />
<glyph unicode="&#xc9;" glyph-name="Eacute" horiz-adv-x="615" d="M95 0V660H559V569H203V378H483V289H203V91H573V0H95ZM346 895H450L364 736H282L346 895Z" />
<glyph unicode="&#xca;" glyph-name="Ecircumflex" horiz-adv-x="615" d="M95 0V660H559V569H203V378H483V289H203V91H573V0H95ZM489 736H403L327 839L251 736H165L271 895H383L489 736Z" />
<glyph unicode="&#xcb;" glyph-name="Edieresis" horiz-adv-x="615" d="M95 0V660H559V569H203V378H483V289H203V91H573V0H95ZM225 857Q255 857 272 840T290 796Q290 767 273 751T225 734Q196 734 179 750T161 796Q161 823 178 840T225 857ZM428 857Q458 857 475
840T493 796Q493 767 476 751T428 734Q399 734 382 750T364 796Q364 823 381 840T428 857Z" />
<glyph unicode="&#xcc;" glyph-name="Igrave" horiz-adv-x="298" d="M203 660V0H95V660H203ZM128 895L193 736H111L24 895H128Z" />
<glyph unicode="&#xcd;" glyph-name="Iacute" horiz-adv-x="298" d="M203 660V0H95V660H203ZM170 895H274L188 736H106L170 895Z" />
<glyph unicode="&#xce;" glyph-name="Icircumflex" horiz-adv-x="298" d="M203 660V0H95V660H203ZM311 736H225L149 839L73 736H-13L93 895H205L311 736Z" />
<glyph unicode="&#xcf;" glyph-name="Idieresis" horiz-adv-x="298" d="M59 857Q88 857 105 840T123 796Q123 767 106 751T59 734Q30 734 13 750T-4 796Q-4 823 13 840T59 857ZM238 857Q267 857 284 840T302 796Q302 767 285 751T238 734Q209 734 192 750T175
796Q175 823 192 840T238 857ZM203 660V0H95V660H203Z" />
<glyph unicode="&#xd0;" glyph-name="Eth" horiz-adv-x="712" d="M19 289V375H395V289H19ZM326 660Q477 660 560 575T643 331Q643 171 560 86T326 0H95V660H326ZM324 90Q421 90 475 150T530 331Q530 411 506 464T435 543T324 570H203V90H324Z" />
<glyph unicode="&#xd1;" glyph-name="Ntilde" horiz-adv-x="718" d="M623 660V0H497L248 423L191 532H190L193 427V0H95V660H220L469 237L527 128H528L524 233V660H623ZM547 875Q542 806 513 771T433 735Q405 735 386 745T352 767T324 789T294 799Q273 799 263
783T247 735H176Q181 804 211 839T293 875Q320 875 339 865T372 843T400 821T429 811Q449 811 460 827T475 875H547Z" />
<glyph unicode="&#xd2;" glyph-name="Ograve" horiz-adv-x="726" d="M363 670Q457 670 525 629T630 512T667 330Q667 225 630 149T525 31T363 -10Q269 -10 201 31T96 148T59 330Q59 436 96 512T201 629T363 670ZM363 578Q303 578 260 549T194 464T171 330Q171
252 194 197T260 112T363 82Q423 82 465 111T531 196T555 330Q555 409 532 464T466 548T363 578ZM350 895L415 736H333L246 895H350Z" />
<glyph unicode="&#xd3;" glyph-name="Oacute" horiz-adv-x="726" d="M363 670Q457 670 525 629T630 512T667 330Q667 225 630 149T525 31T363 -10Q269 -10 201 31T96 148T59 330Q59 436 96 512T201 629T363 670ZM363 578Q303 578 260 549T194 464T171 330Q171
252 194 197T260 112T363 82Q423 82 465 111T531 196T555 330Q555 409 532 464T466 548T363 578ZM377 895H481L395 736H313L377 895Z" />
<glyph unicode="&#xd4;" glyph-name="Ocircumflex" horiz-adv-x="726" d="M363 670Q457 670 525 629T630 512T667 330Q667 225 630 149T525 31T363 -10Q269 -10 201 31T96 148T59 330Q59 436 96 512T201 629T363 670ZM363 578Q303 578 260 549T194 464T171 330Q171
252 194 197T260 112T363 82Q423 82 465 111T531 196T555 330Q555 409 532 464T466 548T363 578ZM525 736H439L363 839L287 736H201L307 895H419L525 736Z" />
<glyph unicode="&#xd5;" glyph-name="Otilde" horiz-adv-x="726" d="M363 670Q457 670 525 629T630 512T667 330Q667 225 630 149T525 31T363 -10Q269 -10 201 31T96 148T59 330Q59 436 96 512T201 629T363 670ZM363 578Q303 578 260 549T194 464T171 330Q171
252 194 197T260 112T363 82Q423 82 465 111T531 196T555 330Q555 409 532 464T466 548T363 578ZM548 875Q543 806 514 771T434 735Q406 735 387 745T353 767T325 789T295 799Q274 799 264 783T248 735H177Q182 804 212 839T294 875Q321 875 340 865T373 843T401
821T430 811Q450 811 461 827T476 875H548Z" />
<glyph unicode="&#xd6;" glyph-name="Odieresis" horiz-adv-x="726" d="M363 670Q457 670 525 629T630 512T667 330Q667 225 630 149T525 31T363 -10Q269 -10 201 31T96 148T59 330Q59 436 96 512T201 629T363 670ZM363 578Q303 578 260 549T194 464T171 330Q171
252 194 197T260 112T363 82Q423 82 465 111T531 196T555 330Q555 409 532 464T466 548T363 578ZM261 857Q291 857 308 840T326 796Q326 767 309 751T261 734Q232 734 215 750T197 796Q197 823 214 840T261 857ZM464 857Q494 857 511 840T529 796Q529 767 512 751T464
734Q435 734 418 750T400 796Q400 823 417 840T464 857Z" />
<glyph unicode="&#xd7;" glyph-name="multiply" horiz-adv-x="604" d="M465 93L529 157L138 547L74 483L465 93ZM138 93L529 483L465 547L74 157L138 93Z" />
<glyph unicode="&#xd8;" glyph-name="Oslash" horiz-adv-x="726" d="M233 81L188 117L503 561L548 526L233 81ZM78 -33L182 110L228 75L148 -33H78ZM557 537L511 572L593 683H664L557 537ZM363 670Q457 670 525 629T630 512T667 330Q667 225 630 149T525 31T363
-10Q269 -10 201 31T96 148T59 330Q59 436 96 512T201 629T363 670ZM363 578Q303 578 260 549T194 464T171 330Q171 252 194 197T260 112T363 82Q423 82 465 111T531 196T555 330Q555 409 532 464T466 548T363 578Z" />
<glyph unicode="&#xd9;" glyph-name="Ugrave" horiz-adv-x="690" d="M608 660V254Q608 122 541 56T345 -10Q218 -10 150 56T82 254V660H191V263Q191 178 226 130T345 82Q428 82 464 130T500 263V660H608ZM341 877L406 718H324L237 877H341Z" />
<glyph unicode="&#xda;" glyph-name="Uacute" horiz-adv-x="690" d="M608 660V254Q608 122 541 56T345 -10Q218 -10 150 56T82 254V660H191V263Q191 178 226 130T345 82Q428 82 464 130T500 263V660H608ZM359 874H463L377 715H295L359 874Z" />
<glyph unicode="&#xdb;" glyph-name="Ucircumflex" horiz-adv-x="690" d="M608 660V254Q608 122 541 56T345 -10Q218 -10 150 56T82 254V660H191V263Q191 178 226 130T345 82Q428 82 464 130T500 263V660H608ZM507 715H421L345 818L269 715H183L289 874H401L507 715Z" />
<glyph unicode="&#xdc;" glyph-name="Udieresis" horiz-adv-x="690" d="M608 660V254Q608 122 541 56T345 -10Q218 -10 150 56T82 254V660H191V263Q191 178 226 130T345 82Q428 82 464 130T500 263V660H608ZM243 836Q273 836 290 819T308 775Q308 746 291 730T243
713Q214 713 197 729T179 775Q179 802 196 819T243 836ZM446 836Q476 836 493 819T511 775Q511 746 494 730T446 713Q417 713 400 729T382 775Q382 802 399 819T446 836Z" />
<glyph unicode="&#xdd;" glyph-name="Yacute" horiz-adv-x="583" d="M572 660L345 252V0H237V252L10 660H129L239 451L291 346L344 451L454 660H572ZM305 878H409L323 719H241L305 878Z" />
<glyph unicode="&#xde;" glyph-name="Thorn" horiz-adv-x="624" d="M335 547Q454 547 515 493T576 337Q576 236 515 182T335 128H149V217H333Q465 217 465 337Q465 399 432 428T333 457H149V547H335ZM203 660V0H95V660H203Z" />
<glyph unicode="&#xdf;" glyph-name="germandbls" horiz-adv-x="611" d="M392 377Q451 377 489 352T545 285T564 196Q564 141 543 94T479 19T369 -10Q324 -10 292 0T242 23L265 103Q282 91 302 84T355 77Q404 77 432 112T461 204Q461 268 427 300T327 333H273L280
417H320Q375 417 405 450T435 534Q435 589 403 615T320 641Q269 641 241 620T201 560T189 466V0H81V485Q81 558 104 612T182 697T326 728Q397 728 445 704T517 639T542 550Q542 509 525 471T475 407T392 379V377Z" />
<glyph unicode="&#xe0;" glyph-name="agrave" horiz-adv-x="542" d="M360 322Q360 371 334 399T262 427Q218 427 188 406T143 338L53 373Q71 435 125 472T267 510Q326 510 371 491T442 431T468 332V110Q468 70 504 70Q512 70 521 71T537 75L531 4Q521 -1 507 -4T473
-8Q443 -8 418 3T379 38T365 98V109L383 110Q376 70 350 43T286 3T210 -10Q141 -10 96 24T50 125Q50 179 83 215T185 266L374 305V234L240 205Q199 197 179 181T158 134Q158 104 179 87T237 70Q260 70 282 76T321 97T349 132T360 184V322ZM243 744L317 576H234L136
744H243Z" />
<glyph unicode="&#xe1;" glyph-name="aacute" horiz-adv-x="542" d="M360 322Q360 371 334 399T262 427Q218 427 188 406T143 338L53 373Q71 435 125 472T267 510Q326 510 371 491T442 431T468 332V110Q468 70 504 70Q512 70 521 71T537 75L531 4Q521 -1 507 -4T473
-8Q443 -8 418 3T379 38T365 98V109L383 110Q376 70 350 43T286 3T210 -10Q141 -10 96 24T50 125Q50 179 83 215T185 266L374 305V234L240 205Q199 197 179 181T158 134Q158 104 179 87T237 70Q260 70 282 76T321 97T349 132T360 184V322ZM285 744H393L295 576H212L285
744Z" />
<glyph unicode="&#xe2;" glyph-name="acircumflex" horiz-adv-x="542" d="M360 322Q360 371 334 399T262 427Q218 427 188 406T143 338L53 373Q71 435 125 472T267 510Q326 510 371 491T442 431T468 332V110Q468 70 504 70Q512 70 521 71T537 75L531 4Q521 -1
507 -4T473 -8Q443 -8 418 3T379 38T365 98V109L383 110Q376 70 350 43T286 3T210 -10Q141 -10 96 24T50 125Q50 179 83 215T185 266L374 305V234L240 205Q199 197 179 181T158 134Q158 104 179 87T237 70Q260 70 282 76T321 97T349 132T360 184V322ZM436 570H349L268
677L187 570H100L212 738H324L436 570Z" />
<glyph unicode="&#xe3;" glyph-name="atilde" horiz-adv-x="542" d="M360 322Q360 371 334 399T262 427Q218 427 188 406T143 338L53 373Q71 435 125 472T267 510Q326 510 371 491T442 431T468 332V110Q468 70 504 70Q512 70 521 71T537 75L531 4Q521 -1 507 -4T473
-8Q443 -8 418 3T379 38T365 98V109L383 110Q376 70 350 43T286 3T210 -10Q141 -10 96 24T50 125Q50 179 83 215T185 266L374 305V234L240 205Q199 197 179 181T158 134Q158 104 179 87T237 70Q260 70 282 76T321 97T349 132T360 184V322ZM453 715Q448 646 419
611T339 575Q311 575 292 585T258 607T230 629T200 639Q179 639 169 623T153 575H82Q87 644 117 679T199 715Q226 715 245 705T278 683T306 661T335 651Q355 651 366 667T381 715H453Z" />
<glyph unicode="&#xe4;" glyph-name="adieresis" horiz-adv-x="542" d="M360 322Q360 371 334 399T262 427Q218 427 188 406T143 338L53 373Q71 435 125 472T267 510Q326 510 371 491T442 431T468 332V110Q468 70 504 70Q512 70 521 71T537 75L531 4Q521 -1 507
-4T473 -8Q443 -8 418 3T379 38T365 98V109L383 110Q376 70 350 43T286 3T210 -10Q141 -10 96 24T50 125Q50 179 83 215T185 266L374 305V234L240 205Q199 197 179 181T158 134Q158 104 179 87T237 70Q260 70 282 76T321 97T349 132T360 184V322ZM166 697Q196 697
213 680T231 636Q231 607 214 591T166 574Q137 574 120 590T102 636Q102 663 119 680T166 697ZM369 697Q399 697 416 680T434 636Q434 607 417 591T369 574Q340 574 323 590T305 636Q305 663 322 680T369 697Z" />
<glyph unicode="&#xe5;" glyph-name="aring" horiz-adv-x="542" d="M360 322Q360 371 334 399T262 427Q218 427 188 406T143 338L53 373Q71 435 125 472T267 510Q326 510 371 491T442 431T468 332V110Q468 70 504 70Q512 70 521 71T537 75L531 4Q521 -1 507 -4T473
-8Q443 -8 418 3T379 38T365 98V109L383 110Q376 70 350 43T286 3T210 -10Q141 -10 96 24T50 125Q50 179 83 215T185 266L374 305V234L240 205Q199 197 179 181T158 134Q158 104 179 87T237 70Q260 70 282 76T321 97T349 132T360 184V322ZM266 802Q323 802 358
770T393 685Q393 631 358 599T266 566Q209 566 174 598T138 685Q138 737 173 769T266 802ZM266 747Q238 747 220 730T202 685Q202 658 220 640T266 622Q294 622 312 640T330 684Q330 712 312 729T266 747Z" />
<glyph unicode="&#xe6;" glyph-name="ae" horiz-adv-x="865" d="M215 -10Q143 -10 97 24T50 125Q50 179 84 215T183 265L360 302V321Q360 372 333 399T260 427Q218 427 188 406T143 338L52 373Q64 413 92 444T163 492T260 510Q330 510 379 481T443 391L409 392Q427
429 455 455T521 496T601 510Q669 510 717 480T790 398T816 279Q816 262 815 249T812 223H468V222Q468 152 507 113T605 74Q647 74 676 93T721 147L807 109Q782 53 729 22T607 -10Q529 -10 474 28T396 140L423 141Q418 107 400 79T354 31T291 1T215 -10ZM237 70Q269
70 296 82T342 120T360 185V231L240 206Q198 197 178 181T157 134Q157 105 178 88T237 70ZM467 297H712Q711 338 696 367T656 411T596 426Q545 426 511 393T467 297Z" />
<glyph unicode="&#xe7;" glyph-name="ccedilla" horiz-adv-x="547" d="M291 510Q350 510 392 492T462 442T503 369L402 329Q391 377 364 401T291 426Q249 426 219 406T173 346T157 249Q157 193 173 154T220 94T292 74Q325 74 349 85T388 119T409 172L507 139Q494
94 466 61T393 9T293 -10Q220 -10 165 21T80 110T49 250Q49 331 80 389T165 479T291 510ZM228 6L268 30Q334 14 363 -18T392 -97Q392 -147 357 -180T266 -214Q233 -214 210 -206T168 -184L190 -121Q203 -130 218 -137T256 -144Q284 -144 301 -127T318 -78Q318 -52
299 -33T228 6Z" />
<glyph unicode="&#xe8;" glyph-name="egrave" horiz-adv-x="561" d="M294 -10Q221 -10 166 21T80 110T49 250Q49 332 79 390T164 479T288 510Q359 510 409 480T485 398T512 277Q512 260 511 246T509 222H119V296H461L408 280Q408 327 394 359T352 409T288 426Q246
426 216 406T169 346T153 249Q153 192 170 153T219 94T294 74Q340 74 370 93T417 147L503 109Q486 72 456 45T384 4T294 -10ZM259 744L333 576H250L152 744H259Z" />
<glyph unicode="&#xe9;" glyph-name="eacute" horiz-adv-x="561" d="M294 -10Q221 -10 166 21T80 110T49 250Q49 332 79 390T164 479T288 510Q359 510 409 480T485 398T512 277Q512 260 511 246T509 222H119V296H461L408 280Q408 327 394 359T352 409T288 426Q246
426 216 406T169 346T153 249Q153 192 170 153T219 94T294 74Q340 74 370 93T417 147L503 109Q486 72 456 45T384 4T294 -10ZM301 744H409L311 576H228L301 744Z" />
<glyph unicode="&#xea;" glyph-name="ecircumflex" horiz-adv-x="561" d="M294 -10Q221 -10 166 21T80 110T49 250Q49 332 79 390T164 479T288 510Q359 510 409 480T485 398T512 277Q512 260 511 246T509 222H119V296H461L408 280Q408 327 394 359T352 409T288
426Q246 426 216 406T169 346T153 249Q153 192 170 153T219 94T294 74Q340 74 370 93T417 147L503 109Q486 72 456 45T384 4T294 -10ZM452 570H365L284 677L203 570H116L228 738H340L452 570Z" />
<glyph unicode="&#xeb;" glyph-name="edieresis" horiz-adv-x="561" d="M294 -10Q221 -10 166 21T80 110T49 250Q49 332 79 390T164 479T288 510Q359 510 409 480T485 398T512 277Q512 260 511 246T509 222H119V296H461L408 280Q408 327 394 359T352 409T288 426Q246
426 216 406T169 346T153 249Q153 192 170 153T219 94T294 74Q340 74 370 93T417 147L503 109Q486 72 456 45T384 4T294 -10ZM182 697Q212 697 229 680T247 636Q247 607 230 591T182 574Q153 574 136 590T118 636Q118 663 135 680T182 697ZM385 697Q415 697 432
680T450 636Q450 607 433 591T385 574Q356 574 339 590T321 636Q321 663 338 680T385 697Z" />
<glyph unicode="&#xec;" glyph-name="igrave" horiz-adv-x="269" d="M189 500V0H81V500H189ZM110 744L184 576H101L3 744H110Z" />
<glyph unicode="&#xed;" glyph-name="iacute" horiz-adv-x="269" d="M189 500V0H81V500H189ZM152 744H260L162 576H79L152 744Z" />
<glyph unicode="&#xee;" glyph-name="icircumflex" horiz-adv-x="269" d="M189 500V0H81V500H189ZM303 570H216L135 677L54 570H-33L79 738H191L303 570Z" />
<glyph unicode="&#xef;" glyph-name="idieresis" horiz-adv-x="269" d="M218 573Q188 573 172 589T155 636Q155 664 171 680T218 697Q247 697 264 681T281 636Q281 606 264 590T218 573ZM51 573Q21 573 5 589T-12 636Q-12 664 4 680T51 697Q81 697 97 681T114
636Q114 606 98 590T51 573ZM189 500V0H81V500H189Z" />
<glyph unicode="&#xf0;" glyph-name="eth" horiz-adv-x="599" d="M292 -10Q218 -10 165 20T83 106T54 240Q54 318 83 373T165 459T283 489Q347 489 389 462T452 388L444 382Q433 461 402 522T319 634T193 727H312Q380 687 430 627T509 483T537 293Q537 201 509
133T426 28T292 -10ZM296 74Q341 74 371 96T417 157T433 242Q433 295 417 332T371 388T299 408Q256 408 226 388T180 331T164 240Q164 160 199 117T296 74ZM199 538L186 596L371 635L401 588L199 538ZM414 590L386 637L530 674L544 619L414 590Z" />
<glyph unicode="&#xf1;" glyph-name="ntilde" horiz-adv-x="602" d="M81 0V500H176L183 364L169 377Q188 445 236 477T348 510Q399 510 439 490T503 428T527 325V0H419V293Q419 364 390 393T316 422Q285 422 256 407T208 357T189 268V0H81ZM492 715Q487 646 458
611T378 575Q350 575 331 585T297 607T269 629T239 639Q218 639 208 623T192 575H121Q126 644 156 679T238 715Q265 715 284 705T317 683T345 661T374 651Q394 651 405 667T420 715H492Z" />
<glyph unicode="&#xf2;" glyph-name="ograve" horiz-adv-x="584" d="M292 510Q363 510 417 479T503 390T535 250Q535 169 504 111T418 21T292 -10Q221 -10 166 21T80 110T49 250Q49 331 80 389T166 479T292 510ZM292 426Q250 426 220 406T174 346T157 250Q157
193 173 154T220 95T292 74Q334 74 364 94T410 154T427 250Q427 307 411 346T364 405T292 426ZM267 744L341 576H258L160 744H267Z" />
<glyph unicode="&#xf3;" glyph-name="oacute" horiz-adv-x="584" d="M292 510Q363 510 417 479T503 390T535 250Q535 169 504 111T418 21T292 -10Q221 -10 166 21T80 110T49 250Q49 331 80 389T166 479T292 510ZM292 426Q250 426 220 406T174 346T157 250Q157
193 173 154T220 95T292 74Q334 74 364 94T410 154T427 250Q427 307 411 346T364 405T292 426ZM309 744H417L319 576H236L309 744Z" />
<glyph unicode="&#xf4;" glyph-name="ocircumflex" horiz-adv-x="584" d="M292 510Q363 510 417 479T503 390T535 250Q535 169 504 111T418 21T292 -10Q221 -10 166 21T80 110T49 250Q49 331 80 389T166 479T292 510ZM292 426Q250 426 220 406T174 346T157 250Q157
193 173 154T220 95T292 74Q334 74 364 94T410 154T427 250Q427 307 411 346T364 405T292 426ZM460 570H373L292 677L211 570H124L236 738H348L460 570Z" />
<glyph unicode="&#xf5;" glyph-name="otilde" horiz-adv-x="584" d="M292 510Q363 510 417 479T503 390T535 250Q535 169 504 111T418 21T292 -10Q221 -10 166 21T80 110T49 250Q49 331 80 389T166 479T292 510ZM292 426Q250 426 220 406T174 346T157 250Q157
193 173 154T220 95T292 74Q334 74 364 94T410 154T427 250Q427 307 411 346T364 405T292 426ZM477 715Q472 646 443 611T363 575Q335 575 316 585T282 607T254 629T224 639Q203 639 193 623T177 575H106Q111 644 141 679T223 715Q250 715 269 705T302 683T330
661T359 651Q379 651 390 667T405 715H477Z" />
<glyph unicode="&#xf6;" glyph-name="odieresis" horiz-adv-x="584" d="M292 510Q363 510 417 479T503 390T535 250Q535 169 504 111T418 21T292 -10Q221 -10 166 21T80 110T49 250Q49 331 80 389T166 479T292 510ZM292 426Q250 426 220 406T174 346T157 250Q157
193 173 154T220 95T292 74Q334 74 364 94T410 154T427 250Q427 307 411 346T364 405T292 426ZM190 697Q220 697 237 680T255 636Q255 607 238 591T190 574Q161 574 144 590T126 636Q126 663 143 680T190 697ZM393 697Q423 697 440 680T458 636Q458 607 441 591T393
574Q364 574 347 590T329 636Q329 663 346 680T393 697Z" />
<glyph unicode="&#xf7;" glyph-name="divide" horiz-adv-x="611" d="M551 363V276H61V363H551ZM312 50Q280 50 261 68T242 117Q242 149 261 167T312 186Q344 186 363 168T382 117Q382 87 363 69T312 50ZM312 454Q280 454 261 472T242 521Q242 553 261 571T312
590Q344 590 363 572T382 521Q382 491 363 473T312 454Z" />
<glyph unicode="&#xf8;" glyph-name="oslash" horiz-adv-x="584" d="M292 510Q363 510 417 479T503 390T535 250Q535 169 504 111T418 21T292 -10Q221 -10 166 21T80 110T49 250Q49 331 80 389T166 479T292 510ZM292 426Q250 426 220 406T174 346T157 250Q157
193 173 154T220 95T292 74Q334 74 364 94T410 154T427 250Q427 307 411 346T364 405T292 426ZM300 -28L732 528H795L363 -28H300Z" />
<glyph unicode="&#xf9;" glyph-name="ugrave" horiz-adv-x="599" d="M250 -10Q201 -10 162 8T100 66T76 169V500H184V196Q184 136 208 107T287 78Q312 78 334 87T373 114T401 161T411 227V500H519V0H423L419 87Q403 55 379 33T322 1T250 -10ZM271 736L345 568H262L164
736H271Z" />
<glyph unicode="&#xfa;" glyph-name="uacute" horiz-adv-x="599" d="M250 -10Q201 -10 162 8T100 66T76 169V500H184V196Q184 136 208 107T287 78Q312 78 334 87T373 114T401 161T411 227V500H519V0H423L419 87Q403 55 379 33T322 1T250 -10ZM313 736H421L323
568H240L313 736Z" />
<glyph unicode="&#xfb;" glyph-name="ucircumflex" horiz-adv-x="599" d="M250 -10Q201 -10 162 8T100 66T76 169V500H184V196Q184 136 208 107T287 78Q312 78 334 87T373 114T401 161T411 227V500H519V0H423L419 87Q403 55 379 33T322 1T250 -10ZM464 562H377L296
669L215 562H128L240 730H352L464 562Z" />
<glyph unicode="&#xfc;" glyph-name="udieresis" horiz-adv-x="599" d="M250 -10Q201 -10 162 8T100 66T76 169V500H184V196Q184 136 208 107T287 78Q312 78 334 87T373 114T401 161T411 227V500H519V0H423L419 87Q403 55 379 33T322 1T250 -10ZM194 689Q224 689
241 672T259 628Q259 599 242 583T194 566Q165 566 148 582T130 628Q130 655 147 672T194 689ZM397 689Q427 689 444 672T462 628Q462 599 445 583T397 566Q368 566 351 582T333 628Q333 655 350 672T397 689Z" />
<glyph unicode="&#xfd;" glyph-name="yacute" horiz-adv-x="518" d="M509 500L301 -54Q281 -110 257 -145T198 -198T116 -215Q81 -215 51 -206T-1 -180L25 -99Q42 -115 63 -122T108 -129Q138 -129 158 -114T193 -58L214 -3L162 122L12 500H132L239 180L265 89L296
187L398 500H509ZM282 736H390L292 568H209L282 736Z" />
<glyph unicode="&#xfe;" glyph-name="thorn" horiz-adv-x="611" d="M81 -210V723H189V369L177 385Q195 440 239 475T349 510Q408 510 455 479T531 390T559 249Q559 168 531 110T455 21T345 -10Q282 -10 239 25T177 115L189 133V-210H81ZM319 76Q380 76 415 122T451
250Q451 332 417 378T321 424Q282 424 252 403T206 343T189 250Q189 197 205 158T250 98T319 76Z" />
<glyph unicode="&#xff;" glyph-name="ydieresis" horiz-adv-x="518" d="M509 500L301 -54Q281 -110 257 -145T198 -198T116 -215Q81 -215 51 -206T-1 -180L25 -99Q42 -115 63 -122T108 -129Q138 -129 158 -114T193 -58L214 -3L162 122L12 500H132L239 180L265
89L296 187L398 500H509ZM163 689Q193 689 210 672T228 628Q228 599 211 583T163 566Q134 566 117 582T99 628Q99 655 116 672T163 689ZM366 689Q396 689 413 672T431 628Q431 599 414 583T366 566Q337 566 320 582T302 628Q302 655 319 672T366 689Z" />
<glyph unicode="&#x2013;" glyph-name="endash" horiz-adv-x="670" d="M591 310V218H79V310H591Z" />
<glyph unicode="&#x2014;" glyph-name="emdash" horiz-adv-x="1005" d="M925 310V218H79V310H925Z" />
<glyph unicode="&#x2018;" glyph-name="quoteleft" horiz-adv-x="263" d="M133 416Q91 416 70 446T49 519Q49 556 63 590T103 652T165 696L214 656Q188 646 167 629T132 592T112 552L116 550Q121 553 127 555T146 557Q166 557 186 541T207 490Q207 457 185 437T133 416Z" />
<glyph unicode="&#x2019;" glyph-name="quoteright" horiz-adv-x="263" d="M135 696Q176 696 197 667T218 593Q218 557 204 523T165 460T102 416L53 457Q80 467 101 483T136 520T155 560L151 562Q146 559 140 557T121 555Q101 555 81 571T60 622Q60 655 82 675T135 696Z" />
<glyph unicode="&#x201a;" glyph-name="quotesinglbase" horiz-adv-x="263" d="M135 133Q176 133 197 104T218 30Q218 -6 204 -40T165 -103T102 -147L53 -106Q80 -96 101 -80T136 -43T155 -3L151 -1Q146 -4 140 -6T121 -8Q101 -8 81 8T60 59Q60 92 82 112T135 133Z" />
<glyph unicode="&#x201c;" glyph-name="quotedblleft" horiz-adv-x="465" d="M133 416Q91 416 70 446T49 519Q49 556 63 590T103 652T165 696L214 656Q188 646 167 629T132 592T112 552L116 550Q121 553 127 555T146 557Q166 557 186 541T207 490Q207 457 185
437T133 416ZM335 416Q293 416 272 446T251 519Q251 556 265 590T305 652T367 696L416 656Q390 646 369 629T334 592T314 552L318 550Q323 553 329 555T348 557Q368 557 388 541T409 490Q409 457 387 437T335 416Z" />
<glyph unicode="&#x201d;" glyph-name="quotedblright" horiz-adv-x="465" d="M135 696Q176 696 197 667T218 593Q218 557 204 523T165 460T102 416L53 457Q80 467 101 483T136 520T155 560L151 562Q146 559 140 557T121 555Q101 555 81 571T60 622Q60 655 82
675T135 696ZM337 696Q378 696 399 667T420 593Q420 557 406 523T367 460T304 416L255 457Q282 467 303 483T338 520T357 560L353 562Q348 559 342 557T323 555Q303 555 283 571T262 622Q262 655 284 675T337 696Z" />
<glyph unicode="&#x201e;" glyph-name="quotedblbase" horiz-adv-x="463" d="M135 133Q176 133 197 104T218 30Q218 -6 204 -40T165 -103T102 -147L53 -106Q80 -96 101 -80T136 -43T155 -3L151 -1Q146 -4 140 -6T121 -8Q101 -8 81 8T60 59Q60 92 82 112T135 133ZM335
133Q376 133 397 104T418 30Q418 -6 404 -40T365 -103T302 -147L253 -106Q280 -96 301 -80T336 -43T355 -3L351 -1Q346 -4 340 -6T321 -8Q301 -8 281 8T260 59Q260 92 282 112T335 133Z" />
<glyph unicode="&#x2022;" glyph-name="bullet" horiz-adv-x="430" d="M215 209Q157 209 121 244T84 336Q84 392 120 427T215 462Q273 462 309 427T346 336Q346 279 310 244T215 209Z" />
<glyph unicode="&#x2039;" glyph-name="guilsinglleft" horiz-adv-x="321" d="M276 461L149 265L276 69H172L44 265L172 461H276Z" />
<glyph unicode="&#x203a;" glyph-name="guilsinglright" horiz-adv-x="321" d="M46 69L172 265L46 461H149L277 265L149 69H46Z" />
</font>
</defs>
</svg>
